***Уважаемые пользователи и гости !!! Сайт переехал на новый домен Torrents-club.info. Просьба изменить ваши закладки! ***
 
[ Сегодня идет свободное скачивание без начисления Download ]


Статистика раздачи
Нет
 
   
 
 
 
По велению сердца (2021) WEBRip [H.264/1080p] (сезон 1, серрии 1-4 из 4) - Производство: Россия / Кинокомпания «Русское»
Жанр: Мелодрама
Режиссер: Юрий Лейзеров
Актеры:
Анна Мельникова, Артур Сопельник, Денис Васильев, Анжелика Вольская, Максим Битюков, Ольга Богомазова, Никита Юранов, Александра Хромова, Алина Виноградова, Джульетта Геринг и др.
Описание:
Амбициозная Аня живет в небольшом городке, работает косметологом и мечтает сделать карьеру в Москве. Случайное знакомство с заезжим столичным бизнесменом Максимом стремительно перерастает в бурный роман и сулит новую жизнь. Но неожиданные обстоятельства вынуждают мужчину срочно уехать, и отношения обрываются на взлёте. Вскоре Аня обнаруживает, что беременна. Спустя год Аня встречает новую любовь. Но не всё так просто — ее спутнику, кажется, есть что скрывать. Девушка начинает всерьёз опасаться за себя и за ребенка.
Возраст: 12+ (зрителям, достигшим 12 лет)
Дата российской премьеры: 4 июня 2022
Продолжительность: ~00:45:00 серия
Качество видео: WEBRip
Видео: AVC/H.264, 1920x1080 (16:9), ~4885 Kbps
Аудио: AAC, 2 ch, 192 Kbps

MediaInfo:

Общее
Уникальный идентификатор : 187159359943786483460496368802343206325 (0x8CCD94E1B185E5078A768D4836D0BDB5)
Полное имя : G:\По велению сердца (2021).Серии 1-4.mkv
Формат : Matroska
Версия формата : Version 4
Размер файла : 6,39 Гбайт
Продолжительность : 3 ч. 0 м.
Режим общего битрейта : Переменный
Общий поток : 5 080 Кбит/сек
Дата кодирования : UTC 2022-06-05 10:56:30
Программа кодирования : mkvmerge v26.0.0 ('In The Game') 32-bit
Библиотека кодирования : libebml v1.3.6 + libmatroska v1.4.9
Видео
Идентификатор : 1
Формат : AVC
Формат/Информация : Advanced Video Codec
Профиль формата : High@L4
Настройки формата : CABAC / 2 Ref Frames
Параметр CABAC формата : Да
Параметр RefFrames формата : 2 кадра
Идентификатор кодека : V_MPEG4/ISO/AVC
Продолжительность : 3 ч. 0 м.
Вид битрейта : Переменный
Битрейт : 4 886 Кбит/сек
Максимальный битрейт : 8 000 Кбит/сек
Ширина : 1 920 пикселей
Высота : 1 080 пикселей
Соотношение сторон : 16:9
Режим частоты кадров : Постоянный
Частота кадров : 25,000 кадров/сек
Цветовое пространство : YUV
Субдискретизация насыщенности : 4:2:0
Битовая глубина : 8 бит
Тип развёртки : Прогрессивная
Бит/(Пиксели*Кадры) : 0.094
Размер потока : 6,15 Гбайт (96%)
Default : Да
Forced : Нет
Аудио
Идентификатор : 2
Формат : AAC LC
Формат/Информация : Advanced Audio Codec Low Complexity
Идентификатор кодека : A_AAC-2
Продолжительность : 3 ч. 0 м.
Битрейт : 192 Кбит/сек
Каналы : 2 канала
Channel layout : L R
Частота : 48,0 КГц
Частота кадров : 46,875 кадров/сек (1024 SPF)
Метод сжатия : С потерями
Задержка видео : -40 мс.
Размер потока : 247 Мбайт (4%)
Default : Да
Forced : Нет
Скриншоты:

[Цитировать]



Показать сообщения:    

Текущее время: 30-Июн 01:57

Часовой пояс: UTC + 6


Вы не можете начинать темы
Вы не можете отвечать на сообщения
Вы не можете редактировать свои сообщения
Вы не можете удалять свои сообщения
Вы не можете голосовать в опросах
Вы не можете прикреплять файлы к сообщениям
Вы не можете скачивать файлы

!ВНИМАНИЕ!
Сайт не предоставляет электронные версии произведений, а занимается лишь коллекционированием и каталогизацией ссылок, присылаемых и публикуемых на форуме нашими читателями. Если вы являетесь правообладателем какого-либо представленного материала и не желаете, чтобы ссылка на него находилась в нашем каталоге, свяжитесь с нами, и мы незамедлительно удалим ее. Файлы для обмена на трекере предоставлены пользователями сайта, и администрация не несет ответственности за их содержание. Просьба не заливать файлы, защищенные авторскими правами, а также файлы нелегального содержания!