***Уважаемые пользователи и гости !!! Сайт переехал на новый домен Torrents-club.info. Просьба изменить ваши закладки! ***
 
[ Сегодня идет свободное скачивание без начисления Download ]


Статистика раздачи
Нет
 
   
 
 
 
Comedy Баттл (2022) WEBRip [H.264/1080p]- Производство: Россия / Comedy Club Production
Жанр: Юмор
Продолжительность: ~00:45:00 выпуск
Ведущий: Павел Воля
Описание:
У смешного не бывает последних сезонов, битва за самые смешные пародии и шутки снова с нами. За годы существования проект "Comedy Баттл" не раз менял своё название и концепцию, но принцип отбора лучших юмористов так и остался в приоритете, а от неудачников избавляются давним способом – сцена сама сбрасывает их вниз. "Comedy Баттл" - комедийное шоу канала ТНТ, в котором может принять участие каждый, кто считает себя смешным.
Возраст: 16+ (зрителям, достигшим 16 лет)
Качество видео: WEBRip
Видео: AVC/H.264, 1920x1072, ~4410 Kbps
Аудио: AC3, 2 ch, 192 Kbps

Mediainfo:

Общее
Уникальный идентификатор : 205287389737891953151601198725507661106 (0x9A70E9C195E197DD97B0F00039E93D32)
Полное имя : D:\Comedy.Баттл.S12.WEB-DL.1080.25Kuzmich\Comedy.Баттл.s12e01.WEB-DL.1080.25Kuzmich.mkv
Формат : Matroska
Версия формата : Version 2
Размер файла : 1,48 Гбайт
Продолжительность : 45 м. 14 с.
Режим общего битрейта : Переменный
Общий поток : 4 691 Кбит/сек
Дата кодирования : UTC 2022-02-04 20:17:15
Программа кодирования : mkvmerge v4.0.0 ('The Stars were mine') сборка от Jun 6 2010 16:18:42
Библиотека кодирования : libebml v1.0.0 + libmatroska v1.0.0
Видео
Идентификатор : 1
Формат : AVC
Формат/Информация : Advanced Video Codec
Профиль формата : High@L4.1
Настройки формата : CABAC / 2 Ref Frames
Параметр CABAC формата : Да
Параметр RefFrames формата : 2 кадра
Идентификатор кодека : V_MPEG4/ISO/AVC
Продолжительность : 45 м. 14 с.
Вид битрейта : Переменный
Битрейт : 4 406 Кбит/сек
Максимальный битрейт : 4 500 Кбит/сек
Ширина : 1 920 пикселей
Высота : 1 072 пикселя
Соотношение сторон : 16:9
Режим частоты кадров : Постоянный
Частота кадров : 25,000 кадров/сек
Цветовое пространство : YUV
Субдискретизация насыщенности : 4:2:0
Битовая глубина : 8 бит
Тип развёртки : Прогрессивная
Бит/(Пиксели*Кадры) : 0.086
Размер потока : 1,39 Гбайт (94%)
Язык : Russian
Default : Да
Forced : Нет
Цветовой диапазон : Limited
Основные цвета : BT.709
Характеристики трансфера : BT.709
Аудио
Идентификатор : 2
Формат : AC-3
Формат/Информация : Audio Coding 3
Коммерческое название : Dolby Digital
Идентификатор кодека : A_AC3
Продолжительность : 45 м. 14 с.
Вид битрейта : Постоянный
Битрейт : 192 Кбит/сек
Каналы : 2 канала
Channel layout : L R
Частота : 48,0 КГц
Частота кадров : 31,250 кадров/сек (1536 SPF)
Метод сжатия : С потерями
Размер потока : 62,1 Мбайт (4%)
Язык : Russian
Service kind : Complete Main
Default : Да
Forced : Нет
Скриншоты:

[Цитировать]



Показать сообщения:    

Текущее время: 07-Дек 05:28

Часовой пояс: UTC + 6


Вы не можете начинать темы
Вы не можете отвечать на сообщения
Вы не можете редактировать свои сообщения
Вы не можете удалять свои сообщения
Вы не можете голосовать в опросах
Вы не можете прикреплять файлы к сообщениям
Вы не можете скачивать файлы

!ВНИМАНИЕ!
Сайт не предоставляет электронные версии произведений, а занимается лишь коллекционированием и каталогизацией ссылок, присылаемых и публикуемых на форуме нашими читателями. Если вы являетесь правообладателем какого-либо представленного материала и не желаете, чтобы ссылка на него находилась в нашем каталоге, свяжитесь с нами, и мы незамедлительно удалим ее. Файлы для обмена на трекере предоставлены пользователями сайта, и администрация не несет ответственности за их содержание. Просьба не заливать файлы, защищенные авторскими правами, а также файлы нелегального содержания!