***Уважаемые пользователи и гости !!! Сайт переехал на новый домен Torrents-club.info. Просьба изменить ваши закладки! ***
 
[ Сегодня идет свободное скачивание без начисления Download ]


Статистика раздачи
Нет
 
   
 
 
 
Michael Schenker Group - Universal (2022) - Жанр: Hard Rock, Heavy Metal
Лейбл/№: Atomic Fire GmbH / AFR0040DP
Страна: Germany
Продолжительность: 00:52:24
Кодек: FLAC
Битрейт: Lossless
Тип рипа: image + .cue
Треклист:
01. Emergency (03:49)
02. Under Attack (04:37)
03. Calling Baal (00:39)
04. A King Has Gone (04:53)
05. The Universe (04:20)
06. Long Long Road (04:17)
07. Wrecking Ball (04:08)
08. Yesterday Is Dead (04:01)
09. London Calling (04:30)
10. Sad Is The Song (04:37)
11. Au Revoir (03:30)
12. Turn Off The World (bonus)(04:45)
13. Fighter (bonus)(04:11)

Дополнительная информация:

Состав:
Ronnie Romero - Vocals
Michael Schenker - Lead Guitar
Barend Courbois - Bass
Steve Mann - Keyboards, Guitars
Bodo Schopf - Drums

Отчёт EAC:

Exact Audio Copy V1.6 from 23. October 2020
EAC extraction logfile from 10. June 2022, 11:42
Michael Schenker Group / Universal
Used drive : TSSTcorpCDDVDW SH-224FB Adapter: 1 ID: 0
Read mode : Secure
Utilize accurate stream : Yes
Defeat audio cache : Yes
Make use of C2 pointers : No
Read offset correction : 6
Overread into Lead-In and Lead-Out : No
Fill up missing offset samples with silence : Yes
Delete leading and trailing silent blocks : No
Null samples used in CRC calculations : Yes
Used interface : Native Win32 interface for Win NT & 2000
Used output format : User Defined Encoder
Selected bitrate : 1024 kBit/s
Quality : High
Add ID3 tag : No
Command line compressor : C:\Program Files (x86)\Exact Audio Copy\Flac\flac.exe
Additional command line options : -V -8 -T "Date=%year%" -T "Genre=%genre%" -T"COMMENT=Ripped by Gra.mi" -8 -V %source%
TOC of the extracted CD
Track | Start | Length | Start sector | End sector
---------------------------------------------------------
1 | 0:00.00 | 3:49.24 | 0 | 17198
2 | 3:49.24 | 4:37.01 | 17199 | 37974
3 | 8:26.25 | 0:39.34 | 37975 | 40933
4 | 9:05.59 | 4:53.68 | 40934 | 62976
5 | 13:59.52 | 4:20.73 | 62977 | 82549
6 | 18:20.50 | 4:17.69 | 82550 | 101893
7 | 22:38.44 | 4:08.74 | 101894 | 120567
8 | 26:47.43 | 4:01.52 | 120568 | 138694
9 | 30:49.20 | 4:30.70 | 138695 | 159014
10 | 35:20.15 | 4:37.18 | 159015 | 179807
11 | 39:57.33 | 3:30.24 | 179808 | 195581
12 | 43:27.57 | 4:45.06 | 195582 | 216962
13 | 48:12.63 | 4:11.21 | 216963 | 235808
Range status and errors
Selected range
Filename D:\Michael Schenker Group - Universal\Michael Schenker Group - Universal.wav
Peak level 94.3 %
Extraction speed 3.1 X
Range quality 100.0 %
Test CRC FBAD7C2C
Copy CRC FBAD7C2C
Copy OK
No errors occurred
AccurateRip summary
Track 1 not present in database
Track 2 not present in database
Track 3 not present in database
Track 4 not present in database
Track 5 not present in database
Track 6 not present in database
Track 7 not present in database
Track 8 not present in database
Track 9 not present in database
Track 10 not present in database
Track 11 not present in database
Track 12 not present in database
Track 13 not present in database
None of the tracks are present in the AccurateRip database
End of status report
---- CUETools DB Plugin V2.1.6
[CTDB TOCID: QJ_zibwHKbRiMaSa3NOtBpdbPqc-] disk not present in database
Submit result: QJ_zibwHKbRiMaSa3NOtBpdbPqc- has been uploaded
==== Log checksum ABE4AB59D9FB6452380E3D90A257FAD5D12CBF9CE0BE1495344E5D6BB4B0F628 ====
Michael Schenker Group Michael Schenker Group Michael Schenker Group

[Цитировать]



Показать сообщения:    

Текущее время: 07-Дек 05:26

Часовой пояс: UTC + 6


Вы не можете начинать темы
Вы не можете отвечать на сообщения
Вы не можете редактировать свои сообщения
Вы не можете удалять свои сообщения
Вы не можете голосовать в опросах
Вы не можете прикреплять файлы к сообщениям
Вы не можете скачивать файлы

!ВНИМАНИЕ!
Сайт не предоставляет электронные версии произведений, а занимается лишь коллекционированием и каталогизацией ссылок, присылаемых и публикуемых на форуме нашими читателями. Если вы являетесь правообладателем какого-либо представленного материала и не желаете, чтобы ссылка на него находилась в нашем каталоге, свяжитесь с нами, и мы незамедлительно удалим ее. Файлы для обмена на трекере предоставлены пользователями сайта, и администрация не несет ответственности за их содержание. Просьба не заливать файлы, защищенные авторскими правами, а также файлы нелегального содержания!