***Уважаемые пользователи и гости !!! Сайт переехал на новый домен Torrents-club.info. Просьба изменить ваши закладки! ***
 
[ Сегодня идет свободное скачивание без начисления Download ]


Статистика раздачи
Нет
 
   
 
 
 
-Разрыв связи-Информация
Оригинальное название: Разрыв связи
Год выпуска: 2022
Жанр: Документальный, публицистика
Телеканал: Настоящее Время
Студия: A.Z.
Режиссёр: Андрей Лошак
Генеральный продюсер: Кенан Алиев-Описание: Война пришла не только в Украину.Она пришла и в российские семьи. Общество раскололось на два лагеря: противников и сторонников "военной операции". Нейтралитета больше нет. Относиться "с пониманием" тоже уже не получается. У каждого из нас есть родственники и близкие люди, с которыми мы после 24 февраля или перестали общаться или свели общение к минимуму. Родители разрывают отношения с детьми, жены с мужьями, сестры с братьями.
Никакие аргументы не работают, пропагандистам из телевизора верят больше, чем родным.
Фильм Андрея Лошака "Разрыв связи" посвящен семьям, которых расколола война. Его герои – семь пар близких людей, с каждым из которых автор фильма беседует отдельно, задает те же вопросы. Съемки длились с начала весны – за это время никто из героев не изменил своего мнения. Этот фильм не попытка диалога, а печальное свидетельство обратного. Безжалостный диагноз больному обществу, в котором пропаганда оказывается сильнее родственных связей.
Есть Реклама - логотип ТВ канала
Выпущено: Чехия - Россия
Продолжительность: ~ 01:38:12
Язык: Русский
Субтитры: Русские
Файл
Формат: mp4
Качество: WEBRip 1080p
Видео: MPEG-4 AVC, 1858 Кбит/с, 1920x1080
Аудио: AAC, 2 ch, 128 Кбит/с

MediaInfo

Общее
Полное имя : D:\razryv_svjazi_2022.mp4
Формат : MPEG-4
Профиль формата : Base Media
Идентификатор кодека : isom (isom/iso2/avc1/mp41)
Размер файла : 1, 37 Гбайт
Продолжительность : 1 ч. 38 м.
Общий поток : 1 994 Кбит/сек
Название фильма : Разрыв связи | Фильм Андрея Лошака
Исполнитель : Настоящее Время
Дата записи : 20220619
Программа кодирования : Lavf58.76.100
Обложка : Yes
Видео
Идентификатор : 1
Формат : AVC
Формат/Информация : Advanced Video Codec
Профиль формата : High@L4
Настройки формата : CABAC / 3 Ref Frames
Параметр CABAC формата : Да
Параметр RefFrames формата : 3 кадра
Идентификатор кодека : avc1
Идентификатор кодека/Информация : Advanced Video Coding
Продолжительность : 1 ч. 38 м.
Битрейт : 1 858 Кбит/сек
Ширина : 1 920 пикселей
Высота : 1 080 пикселей
Соотношение сторон : 16:9
Режим частоты кадров : Постоянный
Частота кадров : 25, 000 кадров/сек
Цветовое пространство : YUV
Субдискретизация насыщенности : 4:2:0
Битовая глубина : 8 бит
Тип развёртки : Прогрессивная
Бит/(Пиксели*Кадры) : 0.036
Размер потока : 1, 27 Гбайт (93%)
Заголовок : ISO Media file produced by Google Inc.
Цветовой диапазон : Limited
Основные цвета : BT.709
Характеристики трансфера : BT.709
Коэффициенты матрицы : BT.709
Codec configuration box : avcC
Аудио
Идентификатор : 2
Формат : AAC LC
Формат/Информация : Advanced Audio Codec Low Complexity
Идентификатор кодека : mp4a-40-2
Продолжительность : 1 ч. 38 м.
Вид битрейта : Постоянный
Битрейт : 128 Кбит/сек
Каналы : 2 канала
Channel layout : L R
Частота : 44, 1 КГц
Частота кадров : 43, 066 кадра/сек (1024 SPF)
Метод сжатия : С потерями
Размер потока : 89, 9 Мбайт (6%)
Заголовок : ISO Media file produced by Google Inc.
Язык : English
Default : Да
Alternate group : 1

Читать внимательно

Война пришла не только в Украину. Она пришла и в российские семьи. Общество раскололось на два лагеря: противников и сторонников «военной операции». Нейтралитета больше нет. Относиться «с пониманием» тоже уже не получается. У каждого из нас есть родственники и близкие люди, с которыми мы после 24 февраля или перестали общаться или свели общение к минимуму. Родители разрывают отношения с детьми, жены с мужьями, сестры с братьями. Никакие аргументы не работают, пропагандистам из телевизора верят больше, чем родным. Фильм Андрея Лошака «Разрыв связи» посвящен семьям, которых расколола война. Его герои – семь пар близких людей, с каждым из которых автор фильма беседует отдельно, задает те же вопросы. Съемки длились с начала весны – за это время никто из героев не изменил своего мнения. Этот фильм не попытка диалога, а печальное свидетельство обратного. Безжалостный диагноз больному обществу, в котором пропаганда оказывается сильнее родственных связей.

Скриншоты

[Цитировать]



Показать сообщения:    

Текущее время: 30-Июн 01:09

Часовой пояс: UTC + 6


Вы не можете начинать темы
Вы не можете отвечать на сообщения
Вы не можете редактировать свои сообщения
Вы не можете удалять свои сообщения
Вы не можете голосовать в опросах
Вы не можете прикреплять файлы к сообщениям
Вы не можете скачивать файлы

!ВНИМАНИЕ!
Сайт не предоставляет электронные версии произведений, а занимается лишь коллекционированием и каталогизацией ссылок, присылаемых и публикуемых на форуме нашими читателями. Если вы являетесь правообладателем какого-либо представленного материала и не желаете, чтобы ссылка на него находилась в нашем каталоге, свяжитесь с нами, и мы незамедлительно удалим ее. Файлы для обмена на трекере предоставлены пользователями сайта, и администрация не несет ответственности за их содержание. Просьба не заливать файлы, защищенные авторскими правами, а также файлы нелегального содержания!