***Уважаемые пользователи и гости !!! Сайт переехал на новый домен Torrents-club.info. Просьба изменить ваши закладки! ***
 
[ Сегодня идет свободное скачивание без начисления Download ]


Статистика раздачи
Нет
 
   
 
 
 
Чип и Дейл спешат на помощь / Chip 'n Dale: Rescue Rangers (2022) [4K, HEVC, Dolby Vision TV / WEB-DL] (2160p) Год выпуска: 2022
Жанр: Мультфильм, комедия, детектив, приключения, семейный
Выпущено: США, Mandeville Films, Walt Disney Pictures, Big Flick Rentals, The Moving Picture Company, Technicolor Limited
Режиссер: Акива Шаффер
Продолжительность: 01:36:45
Перевод: Профессиональный одноголосый
Субтитры: Русские, английские

В ролях
: Энди Сэмберг, Джон Малэйни, КиКи Лэйн, Уилл Арнетт, Эрик Бана, Флула Борг, Дэннис Хэйсбёрт, Кигэн-Майкл Ки, Тресс МакНилл, Тим Робинсон

О фильме:
Согласно сюжету фильма, мультсериал «Чип и Дейл спешат на помощь» был шоу, в котором когда-то снимались бурундуки и их друзья. Но потом шоу отменили, и его главные звёзды расстались: Чип стал страховым агентом, Дейл стал зарабатывать, рассказывая о своих прежних успехах на разных фестивалях. Но когда один из друзей Чипа и Дейла пропал, они вновь объединились, чтобы спасти товарища.
Чип и Дейл спешат на помощь 2022 русский трейлер
Техданные
Качество: WEB-DL (2160p)
Видео: HEVC, 16.4 Mбит/с, 3840x2160
Аудио: Русский (AC3, 6 ch, 448 Кбит/с), английский (E-AC3 JOC, 6 ch, 768 Кбит/с)

Релиз

Релиз с Dolby Vision Profile 5 в контейнере MP4. Совместим со многими устройствами, поддерживающими Dolby Vision, включая плееры ТВ LG.
Видеоряд не содержит слоя HDR. На устройствах без поддержки Dolby Vision будут "поломанные" цвета, как на скриншотах.
Аудио #1 Русский: AC3, 48.0 kHz, 5.1 ch, 448 Kbps [MVO, Jaskier | Tnx.KinoPub]
Аудио #2 Русский: AC3, 48.0 kHz, 5.1 ch, 448 Kbps [VO, Сыендук]
Аудио #3 English: EAC3 JOC, 48.0 kHz, 5.1 ch, 768 Kbps [Original]
Субтитры: русские (4 x полные), английские (полные, SDH)
Неправильные цвета на скриншотах следствие отсутствия HDR-слоя и невозможности корректного отображения только DV-слоя на PC-плеерах.
Спасибо rbt2008 (Рутрекер) за озвучку 5.1
В случае возникновения проблем со звуком, рекомендуется проигрывать релиз через флешку/HDD, а не DLNA

MediaInfo:

Общее
Полное имя                               : \\Slid-NAS\Films\Chip.n.Dale.Rescue.Rangers.2022.DSNP.2160p.WEB-DL.DDP5.1.Atmos.DoVi.mp4
Формат                                   : MPEG-4
Профиль формата                          : Base Media / Version 2
Идентификатор кодека                     : mp42 (isom/mp42/dby1)
Размер файла                             : 12,2 Гбайт
Продолжительность                        : 1 ч. 36 м.
Режим общего битрейта                    : Переменный
Общий поток                              : 18,1 Мбит/сек
Название фильма                          : Chip 'n Dale: Rescue Rangers (2022)
Дата кодирования                         : UTC 2022-05-25 08:50:21
Дата пометки                             : UTC 2022-05-25 08:50:21
Программа кодирования                    : GPAC-1.1.0-DEV-rev1027-g1daa0b5f-master
Видео
Идентификатор                            : 1
Формат                                   : HEVC
Формат/Информация                        : High Efficiency Video Coding
Профиль формата                          : Main 10@L5@High
HDR format                               : Dolby Vision, Version 1.0, dvhe.05.06, BL+RPU
Идентификатор кодека                     : dvhe
Идентификатор кодека/Информация          : High Efficiency Video Coding with Dolby Vision
Продолжительность                        : 1 ч. 36 м.
Битрейт                                  : 16,4 Мбит/сек
Ширина                                   : 3 840 пикселей
Высота                                   : 2 160 пикселей
Соотношение сторон                       : 16:9
Режим частоты кадров                     : Постоянный
Частота кадров                           : 24,000 кадра/сек
Цветовое пространство                    : YUV
Субдискретизация насыщенности            : 4:2:0
Битовая глубина                          : 10 бит
Бит/(Пиксели*Кадры)                      : 0.082
Размер потока                            : 11,1 Гбайт (91%)
Заголовок                                : Chip 'n Dale. Rescue Rangers (2022)
Язык                                     : English
Default                                  : Да
Alternate group                          : 1
Дата пометки                             : UTC 2022-05-25 08:50:47
Цветовой диапазон                        : Full
Codec configuration box                  : hvcC+dvcC
Аудио #1
Идентификатор                            : 2
Формат                                   : AC-3
Формат/Информация                        : Audio Coding 3
Коммерческое название                    : Dolby Digital
Идентификатор кодека                     : ac-3
Продолжительность                        : 1 ч. 36 м.
Вид битрейта                             : Постоянный
Битрейт                                  : 448 Кбит/сек
Максимальный битрейт                     : 473 Кбит/сек
Каналы                                   : 6 каналов
Channel layout                           : L R C LFE Ls Rs
Частота                                  : 48,0 КГц
Частота кадров                           : 31,250 кадров/сек (1536 SPF)
Метод сжатия                             : С потерями
Размер потока                            : 310 Мбайт (2%)
Заголовок                                : MVO, Jaskier
Язык                                     : Russian
Service kind                             : Complete Main
Дата кодирования                         : UTC 2022-05-25 08:50:37
Дата пометки                             : UTC 2022-05-25 08:50:47
Аудио #2
Идентификатор                            : 3
Формат                                   : AC-3
Формат/Информация                        : Audio Coding 3
Коммерческое название                    : Dolby Digital
Идентификатор кодека                     : ac-3
Продолжительность                        : 1 ч. 36 м.
Вид битрейта                             : Постоянный
Битрейт                                  : 448 Кбит/сек
Максимальный битрейт                     : 473 Кбит/сек
Каналы                                   : 6 каналов
Channel layout                           : L R C LFE Ls Rs
Частота                                  : 48,0 КГц
Частота кадров                           : 31,250 кадров/сек (1536 SPF)
Метод сжатия                             : С потерями
Размер потока                            : 310 Мбайт (2%)
Заголовок                                : VO, Сыендук
Язык                                     : Russian
Service kind                             : Complete Main
Default                                  : Нет
Дата кодирования                         : UTC 2022-05-23 20:06:07
Дата пометки                             : UTC 2022-05-25 08:50:47
Аудио #3
Идентификатор                            : 4
Формат                                   : E-AC-3 JOC
Формат/Информация                        : Enhanced AC-3 with Joint Object Coding
Коммерческое название                    : Dolby Digital Plus with Dolby Atmos
Идентификатор кодека                     : ec-3
Продолжительность                        : 1 ч. 36 м.
Вид битрейта                             : Постоянный
Битрейт                                  : 768 Кбит/сек
Максимальный битрейт                     : 811 Кбит/сек
Каналы                                   : 6 каналов
Channel layout                           : L R C LFE Ls Rs
Частота                                  : 48,0 КГц
Частота кадров                           : 31,250 кадров/сек (1536 SPF)
Метод сжатия                             : С потерями
Размер потока                            : 532 Мбайт (4%)
Заголовок                                : Original
Язык                                     : English
Service kind                             : Complete Main
Default                                  : Нет
Alternate group                          : 1
Дата пометки                             : UTC 2022-05-25 08:50:47
Complexity index                         : Not present / 16
Number of dynamic objects                : 15
Bed channel count                        : 1 канал
Bed channel configuration                : LFE
Текст #1
Идентификатор                            : 5
Формат                                   : Timed Text
Идентификатор кодека                     : tx3g
Продолжительность                        : 1 ч. 29 м.
Вид битрейта                             : Переменный
Битрейт                                  : 164 бит/сек
Размер потока                            : 108 Кбайт (0%)
Заголовок                                : Full, Cool Story Blog
Язык                                     : Russian
Forced                                   : Нет
Дата кодирования                         : UTC 2022-05-23 20:06:20
Дата пометки                             : UTC 2022-05-25 08:50:47
Текст #2
Идентификатор                            : 6
Формат                                   : Timed Text
Идентификатор кодека                     : tx3g
Продолжительность                        : 1 ч. 29 м.
Вид битрейта                             : Переменный
Битрейт                                  : 145 бит/сек
Размер потока                            : 95,4 Кбайт (0%)
Заголовок                                : Full, Mystery World Team
Язык                                     : Russian
Forced                                   : Нет
Дата кодирования                         : UTC 2022-05-23 20:06:20
Дата пометки                             : UTC 2022-05-25 08:50:47
Текст #3
Идентификатор                            : 7
Формат                                   : Timed Text
Идентификатор кодека                     : tx3g
Продолжительность                        : 1 ч. 29 м.
Вид битрейта                             : Переменный
Битрейт                                  : 172 бит/сек
Размер потока                            : 113 Кбайт (0%)
Заголовок                                : Full, Sub-Toon Inc.
Язык                                     : Russian
Forced                                   : Нет
Дата кодирования                         : UTC 2022-05-23 20:06:20
Дата пометки                             : UTC 2022-05-25 08:50:47
Текст #4
Идентификатор                            : 8
Формат                                   : Timed Text
Идентификатор кодека                     : tx3g
Продолжительность                        : 1 ч. 29 м.
Вид битрейта                             : Переменный
Битрейт                                  : 147 бит/сек
Размер потока                            : 96,3 Кбайт (0%)
Заголовок                                : Full, Женя Спицын
Язык                                     : Russian
Forced                                   : Нет
Дата кодирования                         : UTC 2022-05-23 20:06:20
Дата пометки                             : UTC 2022-05-25 08:50:47
Текст #5
Идентификатор                            : 9
Формат                                   : Timed Text
Идентификатор кодека                     : tx3g
Продолжительность                        : 1 ч. 29 м.
Вид битрейта                             : Переменный
Битрейт                                  : 108 бит/сек
Размер потока                            : 70,7 Кбайт (0%)
Заголовок                                : Full
Язык                                     : English
Forced                                   : Нет
Дата пометки                             : UTC 2022-05-25 08:50:47
Текст #6
Идентификатор                            : 10
Формат                                   : Timed Text
Идентификатор кодека                     : tx3g
Продолжительность                        : 1 ч. 36 м.
Вид битрейта                             : Переменный
Битрейт                                  : 112 бит/сек
Размер потока                            : 79,5 Кбайт (0%)
Заголовок                                : SDH
Язык                                     : English
Forced                                   : Нет
Дата пометки                             : UTC 2022-05-25 08:50:47

Скриншоты

[Цитировать]



Показать сообщения:    

Текущее время: 30-Июн 00:55

Часовой пояс: UTC + 6


Вы не можете начинать темы
Вы не можете отвечать на сообщения
Вы не можете редактировать свои сообщения
Вы не можете удалять свои сообщения
Вы не можете голосовать в опросах
Вы не можете прикреплять файлы к сообщениям
Вы не можете скачивать файлы

!ВНИМАНИЕ!
Сайт не предоставляет электронные версии произведений, а занимается лишь коллекционированием и каталогизацией ссылок, присылаемых и публикуемых на форуме нашими читателями. Если вы являетесь правообладателем какого-либо представленного материала и не желаете, чтобы ссылка на него находилась в нашем каталоге, свяжитесь с нами, и мы незамедлительно удалим ее. Файлы для обмена на трекере предоставлены пользователями сайта, и администрация не несет ответственности за их содержание. Просьба не заливать файлы, защищенные авторскими правами, а также файлы нелегального содержания!