***Уважаемые пользователи и гости !!! Сайт переехал на новый домен Torrents-club.info. Просьба изменить ваши закладки! ***
 
[ Сегодня идет свободное скачивание без начисления Download ]


Статистика раздачи
Нет
 
   
 
 
 
Чип и Дейл спешат на помощь / Chip 'n Dale: Rescue Rangers (2022) [4K, HEVC, HDR, Dolby Vision / WEB-DL] (2160p) Год выпуска: 2022
Жанр: Мультфильм, комедия, детектив, приключения, семейный
Выпущено: США, Mandeville Films, Walt Disney Pictures, Big Flick Rentals, The Moving Picture Company, Technicolor Limited
Режиссер: Акива Шаффер
Продолжительность: 01:36:46
Перевод: Профессиональный двухголосый, профессиональный одноголосый
Субтитры: Русские, английские

В ролях
: Энди Сэмберг, Джон Малэйни, КиКи Лэйн, Уилл Арнетт, Эрик Бана, Флула Борг, Дэннис Хэйсбёрт, Кигэн-Майкл Ки, Тресс МакНилл, Тим Робинсон

О фильме:
Согласно сюжету фильма, мультсериал «Чип и Дейл спешат на помощь» был шоу, в котором когда-то снимались бурундуки и их друзья. Но потом шоу отменили, и его главные звёзды расстались: Чип стал страховым агентом, Дейл стал зарабатывать, рассказывая о своих прежних успехах на разных фестивалях. Но когда один из друзей Чипа и Дейла пропал, они вновь объединились, чтобы спасти товарища.
Чип и Дейл спешат на помощь 2022 русский трейлер
Техданные
Качество: WEB-DL (2160p)
Видео: HEVC, 16,2 Mбит/с, 3840x2160
Аудио: Русский (AC3, 6 ch, 448 Кбит/с), английский (E-AC3+Atmos, 6 ch, 768 Кбит/с)

Релиз

Перевод: Профессиональный многоголосый, авторский одноголосый
Кодек: H.265
Качество: WebDL 2160p
Видео: HEVC, HDR10, Dolby Vision Profile 8, 16,2 Mбит/с, 3840x2160, 24.000 кадр/с
Звук:
Аудио #1 Русский: AC3, 48.0 kHz, 5.1 ch, 448 Kbps [MVO, Jaskier]
Аудио #2 Русский: AC3, 48.0 kHz, 5.1 ch, 448 Kbps [AVO, Сыендук]
Аудио #3 English: EAC3+Atmos, 48.0 kHz, 5.1 ch, 768 Kbps [Original]
Субтитры: русские(forced, полные(Cool Story Blog, Mystery World Team, Женя Спицын (Сыендук), Toon.Inc)), английские(full, SDH)
Примечание: Гибридный релиз получен слиянием UHD Web-DL 2160p HDR + Web-DL 2160p Dolby vision RPU
Дополнительная информация:
Данный вид релизов в MKV сделан в 8-м профиле Dolby Vision для воспроизведении на устройствах с поддержкой DV. Протестировано на тв-боксах Nvidia Shield 2019, Zidoo Z1000 Pro, Ugoos AM6+, TiVo Stream 4K. Не точно подтверждено воспроизведение на телевизорах Sony XG/XH и Phillips. На устройствах без поддержки Dolby Vision будет играть обычный HDR10.
Программные плееры для воспроизведения в DV(на поддерживаемых устройствах): Vimu Player 8.8.8(и выше

MediaInfo:

Общее
Уникальный идентификатор : 309950911558331015348091621241603963153 (0xE92E5FCAA7DD8E0F145301DED9FF3911)
Полное имя : T:RELEASESChip 'n DaleChip.n.Dale.Rescue.Rangers.2022.2160p.WEB-DL.DDP5.1.Atmos.HDR.DoVi.Hybrid.P8.by.DVT.mkv
Формат : Matroska
Версия формата : Version 4
Размер файла : 12,1 Гбайт
Продолжительность : 1 ч. 36 м.
Общий поток : 17,9 Мбит/сек
Название фильма : Chip 'n Dale: Rescue Rangers (2022) - Release by Dolby Vision Torrents
Дата кодирования : UTC 2022-05-25 07:56:52
Программа кодирования : mkvmerge v67.0.0 ('Under Stars') 64-bit
Библиотека кодирования : libebml v1.4.2 + libmatroska v1.6.4
Attachments : Chip 'n Dale. Rescue Rangers_cr rut.jpg
Видео
Идентификатор : 1
Формат : HEVC
Формат/Информация : High Efficiency Video Coding
Профиль формата : Main 10@L5@High
HDR format : Dolby Vision, Version 1.0, dvhe.08.06, BL+RPU, HDR10 compatible / SMPTE ST 2086, HDR10 compatible
Идентификатор кодека : V_MPEGH/ISO/HEVC
Продолжительность : 1 ч. 36 м.
Битрейт : 16,2 Мбит/сек
Ширина : 3 840 пикселей
Высота : 2 160 пикселей
Соотношение сторон : 16:9
Режим частоты кадров : Постоянный
Частота кадров : 24,000 кадра/сек
Цветовое пространство : YUV
Субдискретизация насыщенности : 4:2:0
Битовая глубина : 10 бит
Бит/(Пиксели*Кадры) : 0.081
Размер потока : 11,0 Гбайт (91%)
Заголовок : Chip 'n Dale: Rescue Rangers (2022) - HYBRID by DVT
Язык : English
Default : Да
Forced : Нет
Цветовой диапазон : Limited
Основные цвета : BT.2020
Характеристики трансфера : PQ
Коэффициенты матрицы : BT.2020 non-constant
Mastering display color primaries : Display P3
Mastering display luminance : min: 0.0010 cd/m2, max: 1000 cd/m2
Аудио #1
Идентификатор : 2
Формат : AC-3
Формат/Информация : Audio Coding 3
Коммерческое название : Dolby Digital
Идентификатор кодека : A_AC3
Продолжительность : 1 ч. 36 м.
Вид битрейта : Постоянный
Битрейт : 448 Кбит/сек
Каналы : 6 каналов
Channel layout : L R C LFE Ls Rs
Частота : 48,0 КГц
Частота кадров : 31,250 кадров/сек (1536 SPF)
Метод сжатия : С потерями
Размер потока : 310 Мбайт (3%)
Заголовок : MVO, Jaskier
Язык : Russian
Service kind : Complete Main
Default : Да
Forced : Нет
Аудио #2
Идентификатор : 3
Формат : AC-3
Формат/Информация : Audio Coding 3
Коммерческое название : Dolby Digital
Идентификатор кодека : A_AC3
Продолжительность : 1 ч. 36 м.
Вид битрейта : Постоянный
Битрейт : 448 Кбит/сек
Каналы : 6 каналов
Channel layout : L R C LFE Ls Rs
Частота : 48,0 КГц
Частота кадров : 31,250 кадров/сек (1536 SPF)
Метод сжатия : С потерями
Размер потока : 310 Мбайт (3%)
Заголовок : AVO, Женя Спицын (Сыендук)
Язык : Russian
Service kind : Complete Main
Default : Нет
Forced : Нет
Аудио #3
Идентификатор : 4
Формат : E-AC-3 JOC
Формат/Информация : Enhanced AC-3 with Joint Object Coding
Коммерческое название : Dolby Digital Plus with Dolby Atmos
Идентификатор кодека : A_EAC3
Продолжительность : 1 ч. 36 м.
Вид битрейта : Постоянный
Битрейт : 768 Кбит/сек
Каналы : 6 каналов
Channel layout : L R C LFE Ls Rs
Частота : 48,0 КГц
Частота кадров : 31,250 кадров/сек (1536 SPF)
Метод сжатия : С потерями
Размер потока : 532 Мбайт (4%)
Заголовок : Original
Язык : English
Service kind : Complete Main
Default : Нет
Forced : Нет
Complexity index : 16
Number of dynamic objects : 15
Bed channel count : 1 канал
Bed channel configuration : LFE
Текст #1
Идентификатор : 5
Формат : UTF-8
Идентификатор кодека : S_TEXT/UTF8
Идентификатор кодека/Информация : UTF-8 Plain Text
Продолжительность : 1 ч. 26 м.
Битрейт : 3 бит/сек
Count of elements : 32
Размер потока : 1,91 Кбайт (0%)
Заголовок : Forced
Язык : Russian
Default : Да
Forced : Нет
Текст #2
Идентификатор : 6
Формат : UTF-8
Идентификатор кодека : S_TEXT/UTF8
Идентификатор кодека/Информация : UTF-8 Plain Text
Продолжительность : 1 ч. 28 м.
Битрейт : 155 бит/сек
Count of elements : 1447
Размер потока : 101 Кбайт (0%)
Заголовок : Full, Cool Story
Язык : Russian
Default : Нет
Forced : Нет
Текст #3
Идентификатор : 7
Формат : UTF-8
Идентификатор кодека : S_TEXT/UTF8
Идентификатор кодека/Информация : UTF-8 Plain Text
Продолжительность : 1 ч. 28 м.
Битрейт : 138 бит/сек
Count of elements : 1438
Размер потока : 90,0 Кбайт (0%)
Заголовок : Full, Mystery World Team
Язык : Russian
Default : Нет
Forced : Нет
Текст #4
Идентификатор : 8
Формат : UTF-8
Идентификатор кодека : S_TEXT/UTF8
Идентификатор кодека/Информация : UTF-8 Plain Text
Продолжительность : 1 ч. 29 м.
Битрейт : 138 бит/сек
Count of elements : 1557
Размер потока : 90,6 Кбайт (0%)
Заголовок : Full, Женя Спицын (Сыендук)
Язык : Russian
Default : Нет
Forced : Нет
Текст #5
Идентификатор : 9
Формат : UTF-8
Идентификатор кодека : S_TEXT/UTF8
Идентификатор кодека/Информация : UTF-8 Plain Text
Продолжительность : 1 ч. 28 м.
Битрейт : 163 бит/сек
Count of elements : 1437
Размер потока : 107 Кбайт (0%)
Заголовок : Full, Toon.Inc
Язык : Russian
Default : Нет
Forced : Нет
Текст #6
Идентификатор : 10
Формат : UTF-8
Идентификатор кодека : S_TEXT/UTF8
Идентификатор кодека/Информация : UTF-8 Plain Text
Продолжительность : 1 ч. 28 м.
Битрейт : 90 бит/сек
Count of elements : 1490
Размер потока : 59,2 Кбайт (0%)
Заголовок : Full
Язык : English
Default : Нет
Forced : Нет
Текст #7
Идентификатор : 11
Формат : UTF-8
Идентификатор кодека : S_TEXT/UTF8
Идентификатор кодека/Информация : UTF-8 Plain Text
Продолжительность : 1 ч. 35 м.
Битрейт : 95 бит/сек
Count of elements : 1688
Размер потока : 67,0 Кбайт (0%)
Заголовок : SDH
Язык : English
Default : Нет
Forced : Нет
Меню
00:00:00.000 : :Глава 01
00:07:30.000 : :Глава 02
00:15:00.000 : :Глава 03
00:22:30.000 : :Глава 04
00:30:00.000 : :Глава 05
00:37:30.000 : :Глава 06
00:45:00.000 : :Глава 07
00:52:30.000 : :Глава 08
01:00:00.000 : :Глава 09
01:07:30.000 : :Глава 10
01:15:00.000 : :Глава 11
01:22:30.000 : :Глава 12
01:30:00.000 : :Глава 13

Скриншоты

[Цитировать]



Показать сообщения:    

Текущее время: 30-Июн 00:53

Часовой пояс: UTC + 6


Вы не можете начинать темы
Вы не можете отвечать на сообщения
Вы не можете редактировать свои сообщения
Вы не можете удалять свои сообщения
Вы не можете голосовать в опросах
Вы не можете прикреплять файлы к сообщениям
Вы не можете скачивать файлы

!ВНИМАНИЕ!
Сайт не предоставляет электронные версии произведений, а занимается лишь коллекционированием и каталогизацией ссылок, присылаемых и публикуемых на форуме нашими читателями. Если вы являетесь правообладателем какого-либо представленного материала и не желаете, чтобы ссылка на него находилась в нашем каталоге, свяжитесь с нами, и мы незамедлительно удалим ее. Файлы для обмена на трекере предоставлены пользователями сайта, и администрация не несет ответственности за их содержание. Просьба не заливать файлы, защищенные авторскими правами, а также файлы нелегального содержания!