***Уважаемые пользователи и гости !!! Сайт переехал на новый домен Torrents-club.info. Просьба изменить ваши закладки! ***
 
[ Сегодня идет свободное скачивание без начисления Download ]


Статистика раздачи
Нет
 
   
 
 
 
Чип и Дейл спешат на помощь / Chip 'n Dale: Rescue Rangers (2022) [4K, HEVC, HDR / WEB-DL] (2160p) Год выпуска: 2022
Жанр: Мультфильм, комедия, детектив, приключения, семейный
Выпущено: США, Mandeville Films, Walt Disney Pictures, Big Flick Rentals, The Moving Picture Company, Technicolor Limited
Режиссер: Акива Шаффер
Продолжительность: 01:36:45
Перевод: Профессиональный многоголосый, профессиональный одноголосый
Субтитры: Русские, английские

В ролях
: Энди Сэмберг, Джон Малэйни, КиКи Лэйн, Уилл Арнетт, Эрик Бана, Флула Борг, Дэннис Хэйсбёрт, Кигэн-Майкл Ки, Тресс МакНилл, Тим Робинсон

О фильме:
Согласно сюжету фильма, мультсериал «Чип и Дейл спешат на помощь» был шоу, в котором когда-то снимались бурундуки и их друзья. Но потом шоу отменили, и его главные звёзды расстались: Чип стал страховым агентом, Дейл стал зарабатывать, рассказывая о своих прежних успехах на разных фестивалях. Но когда один из друзей Чипа и Дейла пропал, они вновь объединились, чтобы спасти товарища.
Чип и Дейл спешат на помощь 2022 русский трейлер
Техданные
Качество: WEB-DL (2160p)
Видео: HEVC, 16.2 Mбит/с, 3840x2160, 24 кадр/с, 10 бит
Аудио: Русский (AC3, 6 ch, 448 Кбит/с), (AC3, 2 ch, 384 Кбит/с), (AC3, 2 ch, 320 Кбит/с), (AAC, 2 ch, 192Кбит/с), украинский (AC3, 6 ch, 384 Кбит/с), английский (E-AC3+Atmos, 6 ch, 768 Кбит/с)

Релиз

Исходник: Chip.n.Dale.Rescue.Rangers.2022.2160p.DSNP.WEB-DL.x265.10bit.HDR.DDP5.1.Atmos-CM
Перевод 01: Русский, профессиональный многоголосый закадровый - студия "ЯскЪер"
Перевод 02: Русский, Профессиональный многоголосый закадровый - HDRezka Studio
Перевод 03: Русский, Профессиональный многоголосый закадровый - студия "TVShows"
Перевод 04: Русский, Профессиональный многоголосый закадровый - Flarrow Films
Перевод 05: Русский, профессиональный одноголосый закадровый - Дима Сыендук
Перевод 06: Русский, Любительский многоголосый закадровый - Voice Project Studio
Перевод 07: Украинский, Профессиональный многоголосый закадровый HDRezka Studio
Аудио 01: Русский, AC-3, 48 kHz, 6 ch, 448 kb/s - Jaskier
Аудио 02: Русский, AC-3, 48 kHz, 6 ch, 448 kbps - HDRezka Studio
Аудио 03: Русский, AC-3, 48 kHz, 2 ch, 384 kbps - TVShows
Аудио 04: Русский, AC-3, 48 kHz, 2 ch, 320 kbps - Flarrow Films
Аудио 05: Русский, AC-3, 48 kHz, 6 ch, 448 kb/s - Сыендук
Аудио 06: Русский, AAC, 48 kHz, 2 ch, 192 kbps - Voice Project Studio
Аудио 07: Українська, AC-3, 48 kHz, 6 ch, 384 kbps - HDRezka Studio
Аудио 08: English, E-AC-3 JOC, 48 kHz, 6 ch, 768 kb/s - Original
Субтитры: Русские (Full) - Cool Story Blog, русские (Full) - Женя Спицын, русские (Full) - Sub-Toon Inc., русские (Full) - Mystery World Team, русские (Forced) - HDRezka Studio, украинские (Forced) - HDRezka Studio, английские (Full), английские (SDH)
Реклама: Отсутствует

MediaInfo:

General
Unique ID                   : 284085396037523142607330410694232174458 (0xD5B8DB6ADA07DAA667DC5B34718EEF7A)
Complete name               : C:\Users\Wild_Cat\Desktop\Chip 'n' Dale Rescue Rangers by Wild_Cat.mkv\Chip 'n Dale Rescue Rangers (2022) - 4K, HDR10 by Wild_Cat.mkv
Format                      : Matroska
Format version              : Version 4
File size                   : 13.2 GiB
Duration                    : 1 h 36 min
Overall bit rate            : 19.6 Mb/s
Movie name                  : Chip 'n Dale Rescue Rangers (2022) - 4K, HDR10 by Wild_Cat
Encoded date                : UTC 2022-05-31 22:29:41
Writing application         : mkvmerge v68.0.0 ('The Curtain') 64-bit
Writing library             : libebml v1.4.2 + libmatroska v1.6.4
Cover                       : Yes
Attachments                 : cover.jpg / cover_land.jpg / small_cover.jpg / small_cover_land.jpg
Video
ID                          : 1
Format                      : HEVC
Format/Info                 : High Efficiency Video Coding
Format profile              : Main 10@L5@High
HDR format                  : SMPTE ST 2086, HDR10 compatible
Codec ID                    : V_MPEGH/ISO/HEVC
Duration                    : 1 h 36 min
Bit rate                    : 16.2 Mb/s
Width                       : 3 840 pixels
Height                      : 2 160 pixels
Display aspect ratio        : 16:9
Frame rate mode             : Constant
Frame rate                  : 24.000 FPS
Color space                 : YUV
Chroma subsampling          : 4:2:0
Bit depth                   : 10 bits
Bits/(Pixel*Frame)          : 0.081
Stream size                 : 10.9 GiB (83%)
Title                       : by Wild_Cat
Language                    : Multiple languages
Default                     : Yes
Forced                      : No
Color range                 : Limited
Color primaries             : BT.2020
Transfer characteristics    : PQ
Matrix coefficients         : BT.2020 non-constant
Mastering display color pri : Display P3
Mastering display luminance : min: 0.0010 cd/m2, max: 1000 cd/m2
Audio #1
ID                          : 2
Format                      : AC-3
Format/Info                 : Audio Coding 3
Commercial name             : Dolby Digital
Codec ID                    : A_AC3
Duration                    : 1 h 36 min
Bit rate mode               : Constant
Bit rate                    : 448 kb/s
Channel(s)                  : 6 channels
Channel layout              : L R C LFE Ls Rs
Sampling rate               : 48.0 kHz
Frame rate                  : 31.250 FPS (1536 SPF)
Compression mode            : Lossy
Stream size                 : 310 MiB (2%)
Title                       : MVO - Jaskier
Language                    : Russian
Service kind                : Complete Main
Default                     : Yes
Forced                      : No
Audio #2
ID                          : 3
Format                      : AC-3
Format/Info                 : Audio Coding 3
Commercial name             : Dolby Digital
Codec ID                    : A_AC3
Duration                    : 1 h 36 min
Bit rate mode               : Constant
Bit rate                    : 448 kb/s
Channel(s)                  : 6 channels
Channel layout              : L R C LFE Ls Rs
Sampling rate               : 48.0 kHz
Frame rate                  : 31.250 FPS (1536 SPF)
Compression mode            : Lossy
Stream size                 : 310 MiB (2%)
Title                       : MVO - HDRezka Studio (Rus)
Language                    : Russian
Service kind                : Complete Main
Default                     : No
Forced                      : No
Audio #3
ID                          : 4
Format                      : AC-3
Format/Info                 : Audio Coding 3
Commercial name             : Dolby Digital
Codec ID                    : A_AC3
Duration                    : 1 h 36 min
Bit rate mode               : Constant
Bit rate                    : 384 kb/s
Channel(s)                  : 2 channels
Channel layout              : L R
Sampling rate               : 48.0 kHz
Frame rate                  : 31.250 FPS (1536 SPF)
Compression mode            : Lossy
Delay relative to video     : 27 ms
Stream size                 : 266 MiB (2%)
Title                       : MVO - TVShows
Language                    : Russian
Service kind                : Complete Main
Default                     : No
Forced                      : No
Audio #4
ID                          : 5
Format                      : AC-3
Format/Info                 : Audio Coding 3
Commercial name             : Dolby Digital
Codec ID                    : A_AC3
Duration                    : 1 h 36 min
Bit rate mode               : Constant
Bit rate                    : 320 kb/s
Channel(s)                  : 2 channels
Channel layout              : L R
Sampling rate               : 48.0 kHz
Frame rate                  : 31.250 FPS (1536 SPF)
Compression mode            : Lossy
Stream size                 : 221 MiB (2%)
Title                       : MVO - Flarrow Films
Language                    : Russian
Service kind                : Complete Main
Default                     : No
Forced                      : No
Audio #5
ID                          : 6
Format                      : AC-3
Format/Info                 : Audio Coding 3
Commercial name             : Dolby Digital
Codec ID                    : A_AC3
Duration                    : 1 h 36 min
Bit rate mode               : Constant
Bit rate                    : 448 kb/s
Channel(s)                  : 6 channels
Channel layout              : L R C LFE Ls Rs
Sampling rate               : 48.0 kHz
Frame rate                  : 31.250 FPS (1536 SPF)
Compression mode            : Lossy
Stream size                 : 310 MiB (2%)
Title                       : VO - Дима Сыендук
Language                    : Russian
Service kind                : Complete Main
Default                     : No
Forced                      : No
Audio #6
ID                          : 7
Format                      : AAC LC
Format/Info                 : Advanced Audio Codec Low Complexity
Codec ID                    : A_AAC-2
Duration                    : 1 h 36 min
Bit rate                    : 192 kb/s
Channel(s)                  : 2 channels
Channel layout              : L R
Sampling rate               : 48.0 kHz
Frame rate                  : 46.875 FPS (1024 SPF)
Compression mode            : Lossy
Delay relative to video     : 16 ms
Stream size                 : 135 MiB (1%)
Title                       : MVO - Voice Project Studio
Language                    : Russian
Default                     : No
Forced                      : No
Audio #7
ID                          : 8
Format                      : AC-3
Format/Info                 : Audio Coding 3
Commercial name             : Dolby Digital
Codec ID                    : A_AC3
Duration                    : 1 h 36 min
Bit rate mode               : Constant
Bit rate                    : 384 kb/s
Channel(s)                  : 6 channels
Channel layout              : L R C LFE Ls Rs
Sampling rate               : 48.0 kHz
Frame rate                  : 31.250 FPS (1536 SPF)
Compression mode            : Lossy
Stream size                 : 266 MiB (2%)
Title                       : MVO - HDRezka Studio (Ukr)
Language                    : Ukrainian
Service kind                : Complete Main
Default                     : No
Forced                      : No
Audio #8
ID                          : 9
Format                      : E-AC-3 JOC
Format/Info                 : Enhanced AC-3 with Joint Object Coding
Commercial name             : Dolby Digital Plus with Dolby Atmos
Codec ID                    : A_EAC3
Duration                    : 1 h 36 min
Bit rate mode               : Constant
Bit rate                    : 768 kb/s
Channel(s)                  : 6 channels
Channel layout              : L R C LFE Ls Rs
Sampling rate               : 48.0 kHz
Frame rate                  : 31.250 FPS (1536 SPF)
Compression mode            : Lossy
Stream size                 : 532 MiB (4%)
Title                       : Original
Language                    : English
Service kind                : Complete Main
Default                     : No
Forced                      : No
Complexity index            : 16
Number of dynamic objects   : 15
Bed channel count           : 1 channel
Bed channel configuration   : LFE
Text #1
ID                          : 10
Format                      : UTF-8
Codec ID                    : S_TEXT/UTF8
Codec ID/Info               : UTF-8 Plain Text
Duration                    : 1 h 29 min
Bit rate                    : 154 b/s
Count of elements           : 1449
Stream size                 : 101 KiB (0%)
Title                       : Русские (Full) - Cool Story Blog
Language                    : Russian
Default                     : No
Forced                      : No
Text #2
ID                          : 11
Format                      : UTF-8
Codec ID                    : S_TEXT/UTF8
Codec ID/Info               : UTF-8 Plain Text
Duration                    : 1 h 29 min
Bit rate                    : 138 b/s
Count of elements           : 1557
Stream size                 : 90.5 KiB (0%)
Title                       : Русские (Full) - Женя Спицын
Language                    : Russian
Default                     : No
Forced                      : No
Text #3
ID                          : 12
Format                      : UTF-8
Codec ID                    : S_TEXT/UTF8
Codec ID/Info               : UTF-8 Plain Text
Duration                    : 1 h 28 min
Bit rate                    : 163 b/s
Count of elements           : 1437
Stream size                 : 107 KiB (0%)
Title                       : Русские (Full) - Sub-Toon Inc.
Language                    : Russian
Default                     : No
Forced                      : No
Text #4
ID                          : 13
Format                      : ASS
Codec ID                    : S_TEXT/ASS
Codec ID/Info               : Advanced Sub Station Alpha
Duration                    : 1 h 29 min
Bit rate                    : 185 b/s
Count of elements           : 1439
Compression mode            : Lossless
Stream size                 : 121 KiB (0%)
Title                       : Русские (Full) - Mystery World Team
Language                    : Russian
Default                     : No
Forced                      : No
Text #5
ID                          : 14
Format                      : UTF-8
Codec ID                    : S_TEXT/UTF8
Codec ID/Info               : UTF-8 Plain Text
Duration                    : 1 h 26 min
Bit rate                    : 8 b/s
Count of elements           : 111
Stream size                 : 5.52 KiB (0%)
Title                       : Русские (Forced) - HDRezka Studio
Language                    : Russian
Default                     : Yes
Forced                      : No
Text #6
ID                          : 15
Format                      : UTF-8
Codec ID                    : S_TEXT/UTF8
Codec ID/Info               : UTF-8 Plain Text
Duration                    : 1 h 25 min
Bit rate                    : 3 b/s
Count of elements           : 46
Stream size                 : 2.14 KiB (0%)
Title                       : Українська (Forced) - HDRezka Studio
Language                    : Ukrainian
Default                     : No
Forced                      : No
Text #7
ID                          : 16
Format                      : UTF-8
Codec ID                    : S_TEXT/UTF8
Codec ID/Info               : UTF-8 Plain Text
Duration                    : 1 h 28 min
Bit rate                    : 90 b/s
Count of elements           : 1490
Stream size                 : 59.2 KiB (0%)
Title                       : English (Full)
Language                    : English
Default                     : No
Forced                      : No
Text #8
ID                          : 17
Format                      : UTF-8
Codec ID                    : S_TEXT/UTF8
Codec ID/Info               : UTF-8 Plain Text
Duration                    : 1 h 35 min
Bit rate                    : 95 b/s
Count of elements           : 1688
Stream size                 : 67.0 KiB (0%)
Title                       : English (SDH)
Language                    : English
Default                     : No
Forced                      : No

Скриншоты

[Цитировать]



Показать сообщения:    

Текущее время: 01-Июл 14:04

Часовой пояс: UTC + 6


Вы не можете начинать темы
Вы не можете отвечать на сообщения
Вы не можете редактировать свои сообщения
Вы не можете удалять свои сообщения
Вы не можете голосовать в опросах
Вы не можете прикреплять файлы к сообщениям
Вы не можете скачивать файлы

!ВНИМАНИЕ!
Сайт не предоставляет электронные версии произведений, а занимается лишь коллекционированием и каталогизацией ссылок, присылаемых и публикуемых на форуме нашими читателями. Если вы являетесь правообладателем какого-либо представленного материала и не желаете, чтобы ссылка на него находилась в нашем каталоге, свяжитесь с нами, и мы незамедлительно удалим ее. Файлы для обмена на трекере предоставлены пользователями сайта, и администрация не несет ответственности за их содержание. Просьба не заливать файлы, защищенные авторскими правами, а также файлы нелегального содержания!