***Уважаемые пользователи и гости !!! Сайт переехал на новый домен Torrents-club.info. Просьба изменить ваши закладки! ***
 
[ Сегодня идет свободное скачивание без начисления Download ]


Статистика раздачи
Нет
 
   
 
 
 
Информация
Оригинальное название: Утро
Год выпуска: 2022
Жанр: Документальный, аналитика-Описание: Путин о ядерной войне, якобы подбитые HIMARS,
"вагнеровцы" против российских солдат.
Есть Реклама - логотип ТВ канала
Выпущено: Чехия, Спутниковый телеканал "Настоящее время" (Current Time TV) SD
Продолжительность: 01:04:55
Язык: Русский
Субтитры: Русские
Файл
Формат: mp4
Качество: WEBRip 1080p
Видео: MPEG-4 AVC, 2141 Кбит/сек, 1920x1080
Аудио: AAC, 2 ch, 128 Кбит/с-Вечная Память Защитникам! Слава Полку АЗОВ!

Телеканал Настоящее Время

Мы – телеканал "Настоящее Время". Мы делаем яркие видео, рассказываем о важных новостях и злободневных темах, готовим интересные репортажи и передачи – смотрите нас на спутнике, в кабельных сетях и в интернете. Каждый день мы присылаем дайджест всего, что нужно знать, одним письмом, а также превращаем цифры в понятные истории.
Наша миссия – продвигать демократические ценности и институты, а также права человека, предоставляя аудитории то, что не всегда могут обеспечить местные СМИ: новости без цензуры, ответственный обмен мнениями, открытое обсуждение проблем. Телеканал "Настоящее Время" вещает 24 часа в сутки в России, Украине, странах Центральной Азии и Восточной Европы, а также в других регионах.
Редакция Настоящего Времени находится в Праге (Чехия), а журналисты работают в России, Украине, Казахстане, Азербайджане, Беларуси, Грузии, Кыргызстане и других странах.
Настоящее Время – это телеканал, созданный RFE/RL при участии "Голоса Америки".
RFE/RL (Радио Свободная Европа/Радио Свобода) – независимая некоммерческая медиакорпорация, финансируемая с помощью грантов Конгресса США через Агентство по глобальным медиа (USAGM). Представителям американского правительства, включая главу Совета управляющих по вопросам вещания, запрещено вмешиваться в работу наших журналистов.

Тема выпуска

Международные эксперты пришли к выводу, что десятки украинских военнопленных в колонии в Еленовке были убиты с помощью термобарического оружия.
Об этом сообщил генпрокурор Украины.
Российские власти продолжают уверять, что во всем виновата Украина.
Россия перебрасывает военных и технику на юг Украины.
Российские олигархи обходят санкции, а их самолеты до сих пор летают в Европу. Правозащитники предполагают, что российских военных, отказавшихся воевать могут расстреливать.

MediaInfo

Общее
Полное имя : D:\nastojashhee_vremja_utro_02_08_2022.mp4
Формат : MPEG-4
Профиль формата : Base Media
Идентификатор кодека : isom (isom/iso2/avc1/mp41)
Размер файла : 994 Мбайт
Продолжительность : 1 ч. 4 м.
Режим общего битрейта : Переменный
Общий поток : 2 141 Кбит/сек
Название фильма : Путин о ядерной войне, якобы подбитые HIMARS, "вагнеровцы" против российских солдат | УТРО
Программа кодирования : Lavf58.29.100
Видео
Идентификатор : 1
Формат : AVC
Формат/Информация : Advanced Video Codec
Профиль формата : High@L4
Настройки формата : CABAC / 3 Ref Frames
Параметр CABAC формата : Да
Параметр RefFrames формата : 3 кадра
Идентификатор кодека : avc1
Идентификатор кодека/Информация : Advanced Video Coding
Продолжительность : 1 ч. 4 м.
Битрейт : 2 006 Кбит/сек
Ширина : 1 920 пикселей
Высота : 1 080 пикселей
Соотношение сторон : 16:9
Режим частоты кадров : Постоянный
Частота кадров : 30, 000 кадров/сек
Цветовое пространство : YUV
Субдискретизация насыщенности : 4:2:0
Битовая глубина : 8 бит
Тип развёртки : Прогрессивная
Бит/(Пиксели*Кадры) : 0.032
Размер потока : 931 Мбайт (94%)
Цветовой диапазон : Limited
Основные цвета : BT.709
Характеристики трансфера : BT.709
Коэффициенты матрицы : BT.709
Codec configuration box : avcC
Аудио
Идентификатор : 2
Формат : AAC LC
Формат/Информация : Advanced Audio Codec Low Complexity
Идентификатор кодека : mp4a-40-2
Продолжительность : 1 ч. 4 м.
Вид битрейта : Переменный
Битрейт : 128 Кбит/сек
Максимальный битрейт : 129 Кбит/сек
Каналы : 2 канала
Channel layout : L R
Частота : 44, 1 КГц
Частота кадров : 43, 066 кадра/сек (1024 SPF)
Метод сжатия : С потерями
Размер потока : 59, 4 Мбайт (6%)
Default : Да
Alternate group : 1

[Цитировать]



Показать сообщения:    

Текущее время: 13-Авг 18:27

Часовой пояс: UTC + 6


Вы не можете начинать темы
Вы не можете отвечать на сообщения
Вы не можете редактировать свои сообщения
Вы не можете удалять свои сообщения
Вы не можете голосовать в опросах
Вы не можете прикреплять файлы к сообщениям
Вы не можете скачивать файлы

!ВНИМАНИЕ!
Сайт не предоставляет электронные версии произведений, а занимается лишь коллекционированием и каталогизацией ссылок, присылаемых и публикуемых на форуме нашими читателями. Если вы являетесь правообладателем какого-либо представленного материала и не желаете, чтобы ссылка на него находилась в нашем каталоге, свяжитесь с нами, и мы незамедлительно удалим ее. Файлы для обмена на трекере предоставлены пользователями сайта, и администрация не несет ответственности за их содержание. Просьба не заливать файлы, защищенные авторскими правами, а также файлы нелегального содержания!