***Уважаемые пользователи и гости !!! Сайт переехал на новый домен Torrents-club.info. Просьба изменить ваши закладки! ***
 
[ Сегодня идет свободное скачивание без начисления Download ]


Статистика раздачи
Нет
 
   
 
 
 
Информация о фильме
Название: Разбивающие сердца
Оригинальное название: Heartbreakers
Год выхода: 1984
Жанр: драма
Режиссер: Бобби Рот
В ролях: Питер Койот, Ник Манкузо, Кароль Лор, Макс Гэйл, Джеймс Лоренсон, Кэрол Уэйн, Джейми Роуз, Кэтрин Харольд, Джордж Морфоген, Джерри Хардин и др.
Описание: Блю и Илай - два друга, которые имеют проблемы с женщинами. Блю бросает его давняя девушка, потому что она считает его слишком незрелым для длительных отношений. Илай, который работает в бизнесе своего отца по производству костюмов для аэробики, все еще ищет женщину, которая достаточно интересна, чтобы провести с ней больше одной ночи. Их дружба подвергается серьезному испытанию, поскольку оба влюбляются в Лилиан, привлекательную новую галеристку Блю.

Страна: США
Продолжительность: 01:38:50
Перевод: профессиональный (двухголосый закадровый) НТВ+
Cубтитры: английские (SDH)
Оригинальная аудиодорожка: английский
Файл
Качество: BDRemux 1080p
Видео: MPEG-4 AVC Video / 34853 kbps / 1080p / 23.976 fps / 16:9 / High Profile 4.1
Аудио 1: russian / AC-3 / 2.0 / 48 kHz / 192 kbps / 16-bit
Аудио 2: english / DTS-HD Master Audio / 2.0 / 48 kHz / 1415 kbps / 24-bit (DTS Core: 2.0 / 48 kHz / 640 kbps / 24-bit)
Аудио 3: english / AC-3 / 2.0 / 48 kHz / 384 kbps / 16-bit / commentary by filmmaker Chris O'Neill and Bill Ackerman of the Supporting Characters podcast

Скриншоты

MediaInfo

General
Unique ID : 223023076312178318236330473991537886253 (0xA7C8AE9DD6384C33EF208396B60F042D)
Complete name : Voyage.of.the.Rock.Aliens.1984.Vinegar.Syndrome.BDRemux.1080p.mkv
Format : Matroska
Format version : Version 4 / Version 2
File size : 25.0 GiB
Duration : 1 h 35 min
Overall bit rate mode : Variable
Overall bit rate : 37.3 Mb/s
Encoded date : UTC 2022-07-26 11:27:53
Writing application : mkvmerge v68.0.0 ('The Curtain') 32-bit
Writing library : libebml v1.4.2 + libmatroska v1.6.4
Video
ID : 1
Format : AVC
Format/Info : Advanced Video Codec
Format profile : High@L4.1
Format settings, CABAC : Yes
Format settings, RefFrames : 3 frames
Codec ID : V_MPEG4/ISO/AVC
Duration : 1 h 35 min
Bit rate mode : Variable
Bit rate : 35.0 Mb/s
Maximum bit rate : 40.0 Mb/s
Width : 1 920 pixels
Height : 1 080 pixels
Display aspect ratio : 16:9
Frame rate mode : Constant
Frame rate : 23.976 (24000/1001) FPS
Standard : NTSC
Color space : YUV
Chroma subsampling : 4:2:0
Bit depth : 8 bits
Scan type : Progressive
Bits/(Pixel*Frame) : 0.704
Stream size : 23.3 GiB (93%)
Writing library : x264pro - Adobe CS Exporter Plug-in
Encoding settings : cabac=1 / ref=4 / deblock=1:-1:-1 / analyse=0x3:0x133 / me=umh / subme=10 / psy=1 / psy_rd=1.00:0.15 / mixed_ref=1 / me_range=24 / chroma_me=1 / trellis=2 / 8x8dct=1 / cqm=0 / deadzone=21,11 / fast_pskip=1 / chroma_qp_offset=-3 / threads=12 / lookahead_threads=2 / sliced_threads=0 / slices=4 / nr=0 / decimate=1 / interlaced=0 / bluray_compat=1 / constrained_intra=0 / bframes=3 / b_pyramid=1 / b_adapt=2 / b_bias=0 / direct=3 / weightb=1 / open_gop=0 / weightp=1 / keyint=24 / keyint_min=1 / scenecut=40 / intra_refresh=0 / rc_lookahead=24 / rc=2pass / mbtree=1 / bitrate=35000 / ratetol=1.0 / qcomp=0.60 / qpmin=0 / qpmax=69 / qpstep=4 / cplxblur=20.0 / qblur=0.5 / vbv_maxrate=40000 / vbv_bufsize=30000 / nal_hrd=vbr / ip_ratio=1.40 / aq=1:1.00
Default : Yes
Forced : No
Color range : Limited
Color primaries : BT.709
Transfer characteristics : BT.709
Matrix coefficients : BT.709
Audio #1
ID : 2
Format : AC-3
Format/Info : Audio Coding 3
Format settings, Endianness : Big
Codec ID : A_AC3
Duration : 1 h 35 min
Bit rate mode : Constant
Bit rate : 192 kb/s
Channel(s) : 2 channels
Channel positions : Front: L R
Sampling rate : 48.0 kHz
Frame rate : 31.250 FPS (1536 SPF)
Bit depth : 16 bits
Compression mode : Lossy
Stream size : 132 MiB (1%)
Language : Russian
Service kind : Complete Main
Default : Yes
Forced : No
Audio #2
ID : 3
Format : DTS
Format/Info : Digital Theater Systems
Format profile : MA / Core
Mode : 16
Format settings, Endianness : Big
Codec ID : A_DTS
Duration : 1 h 35 min
Bit rate mode : Variable / Constant
Bit rate : 2 202 kb/s / 1 509 kb/s
Channel(s) : 6 channels
Channel positions : Front: L C R, Side: L R, LFE
Sampling rate : 48.0 kHz
Frame rate : 93.750 FPS (512 SPF)
Bit depth : 24 bits
Compression mode : Lossless / Lossy
Stream size : 1.47 GiB (6%)
Language : English
Default : No
Forced : No
Text #1
ID : 4
Format : UTF-8
Codec ID : S_TEXT/UTF8
Codec ID/Info : UTF-8 Plain Text
Duration : 1 h 35 min
Bit rate : 66 b/s
Count of elements : 1546
Stream size : 46.7 KiB (0%)
Title : SDH
Language : English
Default : No
Forced : No
Text #2
ID : 5
Format : PGS
Codec ID : S_HDMV/PGS
Codec ID/Info : Picture based subtitle format used on BDs/HD-DVDs
Duration : 1 h 35 min
Bit rate : 34.5 kb/s
Count of elements : 3093
Stream size : 23.6 MiB (0%)
Title : SDH
Language : English
Default : No
Forced : No
Menu
00:00:00.000 : :Chapter 01
00:21:51.810 : :Chapter 02
00:42:15.533 : :Chapter 03
00:58:50.026 : :Chapter 04
01:17:14.630 : :Chapter 05

[Цитировать]



Показать сообщения:    

Текущее время: 06-Окт 04:22

Часовой пояс: UTC + 6


Вы не можете начинать темы
Вы не можете отвечать на сообщения
Вы не можете редактировать свои сообщения
Вы не можете удалять свои сообщения
Вы не можете голосовать в опросах
Вы не можете прикреплять файлы к сообщениям
Вы не можете скачивать файлы

!ВНИМАНИЕ!
Сайт не предоставляет электронные версии произведений, а занимается лишь коллекционированием и каталогизацией ссылок, присылаемых и публикуемых на форуме нашими читателями. Если вы являетесь правообладателем какого-либо представленного материала и не желаете, чтобы ссылка на него находилась в нашем каталоге, свяжитесь с нами, и мы незамедлительно удалим ее. Файлы для обмена на трекере предоставлены пользователями сайта, и администрация не несет ответственности за их содержание. Просьба не заливать файлы, защищенные авторскими правами, а также файлы нелегального содержания!