***Уважаемые пользователи и гости !!! Сайт переехал на новый домен Torrents-club.info. Просьба изменить ваши закладки! ***
 
[ Сегодня идет свободное скачивание без начисления Download ]


Статистика раздачи
Нет
 
   
 
 
 
-Вячеслав Бутусов – Юбилейный концерт (2022)- Производство: Россия
Жанр: Концерт, шоу
Описание:
Первый канал представляет телеверсию концерта одного из самых известных представителей отечественной рок-сцены.
В программе — лучшие хиты Nautilus Pompilius и презентация альбома «Аллилуйя»:
«Эта музыка будет вечной», «Одинокая птица», «Тутанхамон», «Взгляд с экрана», «Люди», «Бриллиантовые дороги»,
«Элизобарра», «Чудное мгновенье», «Идиот», «Если я стану рыбой», «К ангелам», «Аллилуйя», «София!»,
«Кровавая река», «Прогулки по воде», «На берегу», «Зверь», «Утро Полины», «Крылья», «Дыхание», «Хлоп-хлоп»,
«Шар цвета хаки», «Скованные», «Я хочу быть с тобой», «Прощальное письмо»,
«Черные птицы», «Князь тишины», «Гибралтар».-Продолжительность: 01:45:43
Качество видео: WEBRip
Субтитры: Отсутствуют
Видео: AVC/H.264, 1920x1080, ~3815 kbps
Аудио: AC3, 6 ch, 384 kbps

MediaInfo:

General
Unique ID : 318260692165352117381037921240778823141 (0xEF6EC79B7C368A4D4B42A535AD0455E5)
Complete name : Вячеслав Бутусов – Юбилейный концерт (2022).mkv
Format : Matroska
Format version : Version 4
File size : 3.10 GiB
Duration : 1 h 45 min
Overall bit rate : 4 200 kb/s
Encoded date : UTC 2022-08-21 14:26:14
Writing application : mkvmerge v70.0.0 ('Caught A Lite Sneeze') 64-bit
Writing library : libebml v1.4.2 + libmatroska v1.6.4
Video
ID : 1
Format : AVC
Format/Info : Advanced Video Codec
Format profile : High@L4
Format settings : CABAC / 3 Ref Frames
Format settings, CABAC : Yes
Format settings, Reference frames : 3 frames
Codec ID : V_MPEG4/ISO/AVC
Duration : 1 h 45 min
Bit rate : 3 814 kb/s
Width : 1 920 pixels
Height : 1 080 pixels
Display aspect ratio : 16:9
Frame rate mode : Constant
Frame rate : 25.000 FPS
Color space : YUV
Chroma subsampling : 4:2:0
Bit depth : 8 bits
Scan type : Progressive
Bits/(Pixel*Frame) : 0.074
Stream size : 2.82 GiB (91%)
Language : Russian
Default : Yes
Forced : No
Color range : Limited
Color primaries : BT.709
Transfer characteristics : BT.709
Matrix coefficients : BT.709
Audio
ID : 2
Format : AC-3
Format/Info : Audio Coding 3
Commercial name : Dolby Digital
Codec ID : A_AC3
Duration : 1 h 45 min
Bit rate mode : Constant
Bit rate : 384 kb/s
Channel(s) : 6 channels
Channel layout : L R C LFE Ls Rs
Sampling rate : 48.0 kHz
Frame rate : 31.250 FPS (1536 SPF)
Compression mode : Lossy
Stream size : 290 MiB (9%)
Language : Russian
Service kind : Complete Main
Default : Yes
Forced : No

Плейлист:

01. Эта музыка будет вечной
02. Одинокая птица
03. Тутанхамон
04. Взгляд с экрана
05. Люди
06. Бриллиантовые дороги
07. Элизобарра-Торр
08. Чудное мгновение
09. Идиот
10. Прогулки по воде
11. На берегу безымянной реки
12. Зверь
13. Утро Полины
14. Аллилуйя, София!
15. Кровавая река
16. Крылья
17. Дыхание
18. Хлоп-хлоп
19. Шар цвета хаки
20. Скованные одной цепью
21. Я хочу быть с тобой
22. Гудбай, Америка
Скриншоты:

[Цитировать]



Показать сообщения:    

Текущее время: 05-Окт 02:51

Часовой пояс: UTC + 6


Вы не можете начинать темы
Вы не можете отвечать на сообщения
Вы не можете редактировать свои сообщения
Вы не можете удалять свои сообщения
Вы не можете голосовать в опросах
Вы не можете прикреплять файлы к сообщениям
Вы не можете скачивать файлы

!ВНИМАНИЕ!
Сайт не предоставляет электронные версии произведений, а занимается лишь коллекционированием и каталогизацией ссылок, присылаемых и публикуемых на форуме нашими читателями. Если вы являетесь правообладателем какого-либо представленного материала и не желаете, чтобы ссылка на него находилась в нашем каталоге, свяжитесь с нами, и мы незамедлительно удалим ее. Файлы для обмена на трекере предоставлены пользователями сайта, и администрация не несет ответственности за их содержание. Просьба не заливать файлы, защищенные авторскими правами, а также файлы нелегального содержания!