***Уважаемые пользователи и гости !!! Сайт переехал на новый домен Torrents-club.info. Просьба изменить ваши закладки! ***
 
[ Сегодня идет свободное скачивание без начисления Download ]


 
 
Информация о фильме
Название: Кими
Оригинальное название: Kimi
Год выхода: 2022
Жанр: Триллер, драма, криминал
Режиссер: Стивен Содерберг
В ролях: Зои Кравиц, Эрика Кристенсен, Хайме Камиль, Индия де Бефорт, Девин Рэтрей, Леона Бритт, Джейкоб Варгас, Эмили Курода, Байрон Бауэрс, Ноэль И Паркер
О фильме:
Энджела Чайлдс — сотрудница корпорации, отвечающая за расшифровку голосовых данных, поступающих на умные колонки KIMI. Из-за агорафобии героиня работает из дома, но однажды среди голосовых записей ей попадается свидетельство об убийстве. Энджела вынуждена покинуть дом, чтобы сообщить об этом своему начальству, однако в результате девушка сама оказывается в опасности. «Кими» — криминальный триллер Стивена Содерберга с Зои Кравиц в главной роли.

Страна: США
Студия: New Line Cinema, Warner Bros.
Продолжительность: 01:29:06
Перевод: Дублированный | Лицензия
Субтитры: Русские (Forced, full), английские
Файл
Формат: Matroska
Качество: WEB-DL 720p
Видео: AVC/H.264, 1280x720, ~3400 Kbps
Аудио 1: AC3, 6 ch, ~384 kbps - | Русский |
Аудио 2: AC3, 6 ch, ~384 kbps - | Английский |
Формат субтитров: softsub (SRT)

M/I

General
Unique ID : 47849933324266899312048779940869763264 (0x23FF8FDB789CA026E2D4A8BDFF74F0C0)
Complete name : D:Kimi.2022.WEB-DL.720p.x264.seleZen.mkv
Format : Matroska
Format version : Version 4
File size : 2.59 GiB
Duration : 1 h 29 min
Overall bit rate mode : Variable
Overall bit rate : 4 166 kb/s
Movie name : Kimi.2022.WEB-DL.720p.x264.seleZen
Encoded date : UTC 2022-08-31 12:34:22
Writing application : mkvmerge v70.0.0 ('Caught A Lite Sneeze') 64-bit
Writing library : libebml v1.4.2 + libmatroska v1.6.4
Cover : Yes
Attachments : cover.jpg / small_cover.jpg
Video
ID : 1
Format : AVC
Format/Info : Advanced Video Codec
Format profile : Main@L3.1
Format settings : CABAC / 4 Ref Frames
Format settings, CABAC : Yes
Format settings, Reference : 4 frames
Codec ID : V_MPEG4/ISO/AVC
Duration : 1 h 29 min
Bit rate mode : Variable
Bit rate : 3 400 kb/s
Maximum bit rate : 5 100 kb/s
Width : 1 280 pixels
Height : 720 pixels
Display aspect ratio : 16:9
Frame rate mode : Constant
Frame rate : 23.976 (24000/1001) FPS
Color space : YUV
Chroma subsampling : 4:2:0
Bit depth : 8 bits
Scan type : Progressive
Bits/(Pixel*Frame) : 0.154
Stream size : 2.11 GiB (82%)
Writing library : x264 core 157 r2965 861cec4
Encoding settings : cabac=1 / ref=4 / deblock=1:0:0 / analyse=0x1:0x111 / me=hex / subme=7 / psy=1 / psy_rd=1.00:0.00 / mixed_ref=1 / me_range=16 / chroma_me=1 / trellis=1 / 8x8dct=0 / cqm=0 / deadzone=21,11 / fast_pskip=1 / chroma_qp_offset=-2 / threads=22 / lookahead_threads=3 / sliced_threads=0 / nr=0 / decimate=1 / interlaced=0 / bluray_compat=0 / constrained_intra=0 / bframes=3 / b_pyramid=2 / b_adapt=1 / b_bias=0 / direct=1 / weightb=1 / open_gop=0 / weightp=2 / keyint=96 / keyint_min=96 / scenecut=40 / intra_refresh=0 / rc_lookahead=40 / rc=2pass / mbtree=1 / bitrate=3400 / ratetol=1.0 / qcomp=0.60 / qpmin=0 / qpmax=69 / qpstep=4 / cplxblur=20.0 / qblur=0.5 / vbv_maxrate=5100 / vbv_bufsize=2550 / nal_hrd=vbr / filler=0 / ip_ratio=1.40 / aq=1:1.00
Language : English
Default : Yes
Forced : No
Color range : Limited
Color primaries : BT.709
Transfer characteristics : BT.709
Matrix coefficients : BT.709
Audio #1
ID : 2
Format : AC-3
Format/Info : Audio Coding 3
Commercial name : Dolby Digital
Codec ID : A_AC3
Duration : 1 h 29 min
Bit rate mode : Constant
Bit rate : 384 kb/s
Channel(s) : 6 channels
Channel layout : L R C LFE Ls Rs
Sampling rate : 48.0 kHz
Frame rate : 31.250 FPS (1536 SPF)
Compression mode : Lossy
Stream size : 245 MiB (9%)
Title : Dub
Language : Russian
Service kind : Complete Main
Default : Yes
Forced : Yes
Audio #2
ID : 3
Format : AC-3
Format/Info : Audio Coding 3
Commercial name : Dolby Digital
Codec ID : A_AC3
Duration : 1 h 29 min
Bit rate mode : Constant
Bit rate : 384 kb/s
Channel(s) : 6 channels
Channel layout : L R C LFE Ls Rs
Sampling rate : 48.0 kHz
Frame rate : 31.250 FPS (1536 SPF)
Compression mode : Lossy
Stream size : 245 MiB (9%)
Language : English
Service kind : Complete Main
Default : No
Forced : No
Text #1
ID : 4
Format : UTF-8
Codec ID : S_TEXT/UTF8
Codec ID/Info : UTF-8 Plain Text
Duration : 1 h 24 min
Bit rate : 5 b/s
Count of elements : 76
Stream size : 3.67 KiB (0%)
Title : Forced
Language : Russian
Default : Yes
Forced : No
Text #2
ID : 5
Format : UTF-8
Codec ID : S_TEXT/UTF8
Codec ID/Info : UTF-8 Plain Text
Duration : 1 h 28 min
Bit rate : 61 b/s
Count of elements : 781
Stream size : 39.8 KiB (0%)
Title : Full
Language : Russian
Default : No
Forced : No
Text #3
ID : 6
Format : UTF-8
Codec ID : S_TEXT/UTF8
Codec ID/Info : UTF-8 Plain Text
Duration : 1 h 25 min
Bit rate : 43 b/s
Count of elements : 767
Stream size : 27.4 KiB (0%)
Title : Full
Language : English
Default : No
Forced : No
Text #4
ID : 7
Format : UTF-8
Codec ID : S_TEXT/UTF8
Codec ID/Info : UTF-8 Plain Text
Duration : 1 h 26 min
Bit rate : 56 b/s
Count of elements : 1029
Stream size : 35.5 KiB (0%)
Title : SDH
Language : English
Default : No
Forced : No
Menu
00:00:00.000 : en:Глава 01
00:12:30.000 : en:Глава 02
00:25:00.000 : en:Глава 03
00:37:30.000 : en:Глава 04
00:50:00.000 : en:Глава 05
01:02:30.000 : en:Глава 06
01:15:00.000 : en:Глава 07
01:27:30.000 : en:Глава 08

[Цитировать]



Показать сообщения:    

Текущее время: 05-Окт 02:54

Часовой пояс: UTC + 6


Вы не можете начинать темы
Вы не можете отвечать на сообщения
Вы не можете редактировать свои сообщения
Вы не можете удалять свои сообщения
Вы не можете голосовать в опросах
Вы не можете прикреплять файлы к сообщениям
Вы не можете скачивать файлы

!ВНИМАНИЕ!
Сайт не предоставляет электронные версии произведений, а занимается лишь коллекционированием и каталогизацией ссылок, присылаемых и публикуемых на форуме нашими читателями. Если вы являетесь правообладателем какого-либо представленного материала и не желаете, чтобы ссылка на него находилась в нашем каталоге, свяжитесь с нами, и мы незамедлительно удалим ее. Файлы для обмена на трекере предоставлены пользователями сайта, и администрация не несет ответственности за их содержание. Просьба не заливать файлы, защищенные авторскими правами, а также файлы нелегального содержания!