***Уважаемые пользователи и гости !!! Сайт переехал на новый домен Torrents-club.info. Просьба изменить ваши закладки! ***
 
[ Сегодня идет свободное скачивание без начисления Download ]


Статистика раздачи
Нет
 
   
 
 
 
Газетчицы / Paper Girls [S01] (2022) WEB-DL 1080p Название: Газетчицы
Оригинальное название: Paper Girls
Год выпуска: 2022
Жанр: Фантастика, драма, приключения
Выпущено: США, Amazon Studios, Legendary Television, Plan B Entertainment
Режиссер: Майрзи Алмас, Джорджи Бэнкс-Дэвис, Дестини Экарага
В ролях: Камрин Джонс, София Росински, Фина Страцца, Адина Портер, Нэйт Корддри, Али Вонг, Селеста Ариас, Рилей Лай Нелет, Дэниэл Рашид
Описание: Фантастический сериал, основанный на одноименной серии комиксов Брайана К.Вона. Действие происходит в конце восьмидесятых. В центре событий четыре молодые девушки, которые разносят газеты после Хеллоуина. Главные героини по случайному стечению обстоятельств оказываются вовлечены в конфликт между враждующими группами путешественников во времени. Их ожидает увлекательное приключение, в ходе которого им предоставится возможность столкнуться с будущими версиями самих себя, пройти множество нелегких испытаний, а также спасти мир.

Продолжительность: 8 x ~ 00:38:00
Перевод: Профессиональный (многоголосый закадровый) | TVShows
Качество: WEB-DL 1080p
Формат: MKV
Видео: AVC/H.264, 1920x1080, ~8645 Kbps
Аудио 1: AC3, 2 ch, 192 Kbps - русский
Аудио 2: E-AC3, 6 ch, 640 Kbps - английский
Субтитры: русские, английские, немецкие и др.
Реклама: Отсутствует
Релиз от: Alexandr

MediaInfo:

Общее
Уникальный идентификатор : 13416994898991540261476866701101887883 (0xA1804EBDCA0AB81C81EEB6CC5D7F18B)
Полное имя : Paper.Girls.S01E01.by.Alexandr.mkv
Формат : Matroska
Версия формата : Version 4
Размер файла : 2,50 Гбайт
Продолжительность : 37 м. 40 с.
Общий поток : 9 485 Кбит/сек
Название фильма : Paper.Girls.S01E01.by.Alexandr
Дата кодирования : UTC 2022-08-09 08:57:40
Программа кодирования : mkvmerge v26.0.0 ('In The Game') 32-bit
Библиотека кодирования : libebml v1.3.6 + libmatroska v1.4.9 / Lavf57.71.100
Видео
Идентификатор : 1
Формат : AVC
Формат/Информация : Advanced Video Codec
Профиль формата : High@L4
Настройки формата : CABAC / 4 Ref Frames
Параметр CABAC формата : Да
Параметр RefFrames формата : 4 кадра
Идентификатор кодека : V_MPEG4/ISO/AVC
Продолжительность : 37 м. 40 с.
Вид битрейта : Постоянный
Битрейт : 8 646 Кбит/сек
Номинальный битрейт : 10 000 Кбит/сек
Ширина : 1 920 пикселей
Высота : 1 080 пикселей
Соотношение сторон : 16:9
Режим частоты кадров : Постоянный
Частота кадров : 23,976 (24000/1001) кадра/сек
Цветовое пространство : YUV
Субдискретизация насыщенности : 4:2:0
Битовая глубина : 8 бит
Тип развёртки : Прогрессивная
Бит/(Пиксели*Кадры) : 0.174
Размер потока : 2,28 Гбайт (91%)
Default : Да
Forced : Нет
Цветовой диапазон : Limited
Основные цвета : BT.709
Характеристики трансфера : BT.709
Коэффициенты матрицы : BT.709
Аудио #1
Идентификатор : 2
Формат : AC-3
Формат/Информация : Audio Coding 3
Коммерческое название : Dolby Digital
Идентификатор кодека : A_AC3
Продолжительность : 37 м. 40 с.
Вид битрейта : Постоянный
Битрейт : 192 Кбит/сек
Каналы : 2 канала
Channel layout : L R
Частота : 48,0 КГц
Частота кадров : 31,250 кадров/сек (1536 SPF)
Метод сжатия : С потерями
Размер потока : 51,7 Мбайт (2%)
Язык : Russian
Service kind : Complete Main
Default : Нет
Forced : Нет
Аудио #2
Идентификатор : 3
Формат : E-AC-3
Формат/Информация : Enhanced AC-3
Коммерческое название : Dolby Digital Plus
Идентификатор кодека : A_EAC3
Продолжительность : 37 м. 40 с.
Вид битрейта : Постоянный
Битрейт : 640 Кбит/сек
Каналы : 6 каналов
Channel layout : L R C LFE Ls Rs
Частота : 48,0 КГц
Частота кадров : 31,250 кадров/сек (1536 SPF)
Метод сжатия : С потерями
Размер потока : 172 Мбайт (7%)
Язык : English
Service kind : Complete Main
Default : Да
Forced : Нет
Текст #1
Идентификатор : 4
Формат : UTF-8
Идентификатор кодека : S_TEXT/UTF8
Идентификатор кодека/Информация : UTF-8 Plain Text
Продолжительность : 36 м. 25 с.
Битрейт : 77 бит/сек
Частота кадров : 0,316 кадр/сек
Count of elements : 691
Размер потока : 20,6 Кбайт (0%)
Заголовок : English [SDH]
Язык : English
Default : Нет
Forced : Нет
Текст #2
Идентификатор : 5
Формат : UTF-8
Идентификатор кодека : S_TEXT/UTF8
Идентификатор кодека/Информация : UTF-8 Plain Text
Продолжительность : 35 м. 45 с.
Битрейт : 90 бит/сек
Частота кадров : 0,227 кадр/сек
Count of elements : 488
Размер потока : 23,7 Кбайт (0%)
Заголовок : Arabic
Язык : Arabic
Default : Нет
Forced : Нет
Текст #3
Идентификатор : 6
Формат : UTF-8
Идентификатор кодека : S_TEXT/UTF8
Идентификатор кодека/Информация : UTF-8 Plain Text
Продолжительность : 35 м. 45 с.
Битрейт : 50 бит/сек
Частота кадров : 0,225 кадр/сек
Count of elements : 483
Размер потока : 13,2 Кбайт (0%)
Заголовок : Chinese Simplified
Язык : Chinese
Default : Нет
Forced : Нет
Текст #4
Идентификатор : 7
Формат : UTF-8
Идентификатор кодека : S_TEXT/UTF8
Идентификатор кодека/Информация : UTF-8 Plain Text
Продолжительность : 35 м. 45 с.
Битрейт : 49 бит/сек
Частота кадров : 0,228 кадр/сек
Count of elements : 489
Размер потока : 12,8 Кбайт (0%)
Заголовок : Chinese Traditional
Язык : Chinese
Default : Нет
Forced : Нет
Текст #5
Идентификатор : 8
Формат : UTF-8
Идентификатор кодека : S_TEXT/UTF8
Идентификатор кодека/Информация : UTF-8 Plain Text
Продолжительность : 35 м. 45 с.
Битрейт : 52 бит/сек
Частота кадров : 0,227 кадр/сек
Count of elements : 486
Размер потока : 13,7 Кбайт (0%)
Заголовок : Czech (Czechia)
Язык : Czech
Default : Нет
Forced : Нет
Текст #6
Идентификатор : 9
Формат : UTF-8
Идентификатор кодека : S_TEXT/UTF8
Идентификатор кодека/Информация : UTF-8 Plain Text
Продолжительность : 35 м. 45 с.
Битрейт : 48 бит/сек
Частота кадров : 0,226 кадр/сек
Count of elements : 485
Размер потока : 12,6 Кбайт (0%)
Заголовок : Danish
Язык : Danish
Default : Нет
Forced : Нет
Текст #7
Идентификатор : 10
Формат : UTF-8
Идентификатор кодека : S_TEXT/UTF8
Идентификатор кодека/Информация : UTF-8 Plain Text
Продолжительность : 35 м. 45 с.
Битрейт : 46 бит/сек
Частота кадров : 0,225 кадр/сек
Count of elements : 483
Размер потока : 12,2 Кбайт (0%)
Заголовок : Dutch
Язык : Dutch
Default : Нет
Forced : Нет
Текст #8
Идентификатор : 11
Формат : UTF-8
Идентификатор кодека : S_TEXT/UTF8
Идентификатор кодека/Информация : UTF-8 Plain Text
Продолжительность : 35 м. 45 с.
Битрейт : 49 бит/сек
Частота кадров : 0,224 кадр/сек
Count of elements : 481
Размер потока : 13,0 Кбайт (0%)
Заголовок : European Spanish
Язык : Spanish
Default : Нет
Forced : Нет
Текст #9
Идентификатор : 12
Формат : UTF-8
Идентификатор кодека : S_TEXT/UTF8
Идентификатор кодека/Информация : UTF-8 Plain Text
Продолжительность : 35 м. 45 с.
Битрейт : 51 бит/сек
Частота кадров : 0,225 кадр/сек
Count of elements : 483
Размер потока : 13,4 Кбайт (0%)
Заголовок : Filipino
Язык : fil
Default : Нет
Forced : Нет
Текст #10
Идентификатор : 13
Формат : UTF-8
Идентификатор кодека : S_TEXT/UTF8
Идентификатор кодека/Информация : UTF-8 Plain Text
Продолжительность : 35 м. 45 с.
Битрейт : 49 бит/сек
Частота кадров : 0,226 кадр/сек
Count of elements : 485
Размер потока : 12,9 Кбайт (0%)
Заголовок : Finnish
Язык : Finnish
Default : Нет
Forced : Нет
Текст #11
Идентификатор : 14
Формат : UTF-8
Идентификатор кодека : S_TEXT/UTF8
Идентификатор кодека/Информация : UTF-8 Plain Text
Продолжительность : 35 м. 45 с.
Битрейт : 46 бит/сек
Частота кадров : 0,225 кадр/сек
Count of elements : 482
Размер потока : 12,2 Кбайт (0%)
Заголовок : French
Язык : French
Default : Нет
Forced : Нет
Текст #12
Идентификатор : 15
Формат : UTF-8
Идентификатор кодека : S_TEXT/UTF8
Идентификатор кодека/Информация : UTF-8 Plain Text
Продолжительность : 35 м. 45 с.
Битрейт : 49 бит/сек
Частота кадров : 0,225 кадр/сек
Count of elements : 483
Размер потока : 13,0 Кбайт (0%)
Заголовок : German
Язык : German
Default : Нет
Forced : Нет
Текст #13
Идентификатор : 16
Формат : UTF-8
Идентификатор кодека : S_TEXT/UTF8
Идентификатор кодека/Информация : UTF-8 Plain Text
Продолжительность : 35 м. 45 с.
Битрейт : 89 бит/сек
Частота кадров : 0,225 кадр/сек
Count of elements : 483
Размер потока : 23,5 Кбайт (0%)
Заголовок : Greek (Modern)
Язык : Greek
Default : Нет
Forced : Нет
Текст #14
Идентификатор : 17
Формат : UTF-8
Идентификатор кодека : S_TEXT/UTF8
Идентификатор кодека/Информация : UTF-8 Plain Text
Продолжительность : 35 м. 45 с.
Битрейт : 87 бит/сек
Частота кадров : 0,228 кадр/сек
Count of elements : 489
Размер потока : 22,9 Кбайт (0%)
Заголовок : Hebrew
Язык : Hebrew
Default : Нет
Forced : Нет
Текст #15
Идентификатор : 18
Формат : UTF-8
Идентификатор кодека : S_TEXT/UTF8
Идентификатор кодека/Информация : UTF-8 Plain Text
Продолжительность : 35 м. 45 с.
Битрейт : 122 бит/сек
Частота кадров : 0,228 кадр/сек
Count of elements : 489
Размер потока : 32,1 Кбайт (0%)
Заголовок : Hindi
Язык : Hindi
Default : Нет
Forced : Нет
Текст #16
Идентификатор : 19
Формат : UTF-8
Идентификатор кодека : S_TEXT/UTF8
Идентификатор кодека/Информация : UTF-8 Plain Text
Продолжительность : 35 м. 45 с.
Битрейт : 51 бит/сек
Частота кадров : 0,226 кадр/сек
Count of elements : 484
Размер потока : 13,5 Кбайт (0%)
Заголовок : Hungarian
Язык : Hungarian
Default : Нет
Forced : Нет
Текст #17
Идентификатор : 20
Формат : UTF-8
Идентификатор кодека : S_TEXT/UTF8
Идентификатор кодека/Информация : UTF-8 Plain Text
Продолжительность : 35 м. 45 с.
Битрейт : 48 бит/сек
Частота кадров : 0,226 кадр/сек
Count of elements : 485
Размер потока : 12,7 Кбайт (0%)
Заголовок : Indonesian
Язык : Indonesian
Default : Нет
Forced : Нет
Текст #18
Идентификатор : 21
Формат : UTF-8
Идентификатор кодека : S_TEXT/UTF8
Идентификатор кодека/Информация : UTF-8 Plain Text
Продолжительность : 35 м. 45 с.
Битрейт : 49 бит/сек
Частота кадров : 0,226 кадр/сек
Count of elements : 484
Размер потока : 13,0 Кбайт (0%)
Заголовок : Italian
Язык : Italian
Default : Нет
Forced : Нет
Текст #19
Идентификатор : 22
Формат : UTF-8
Идентификатор кодека : S_TEXT/UTF8
Идентификатор кодека/Информация : UTF-8 Plain Text
Продолжительность : 35 м. 45 с.
Битрейт : 44 бит/сек
Частота кадров : 0,255 кадр/сек
Count of elements : 548
Размер потока : 11,6 Кбайт (0%)
Заголовок : Japanese
Язык : Japanese
Default : Нет
Forced : Нет
Текст #20
Идентификатор : 23
Формат : UTF-8
Идентификатор кодека : S_TEXT/UTF8
Идентификатор кодека/Информация : UTF-8 Plain Text
Продолжительность : 35 м. 45 с.
Битрейт : 66 бит/сек
Частота кадров : 0,228 кадр/сек
Count of elements : 489
Размер потока : 17,5 Кбайт (0%)
Заголовок : Korean
Язык : Korean
Default : Нет
Forced : Нет
Текст #21
Идентификатор : 24
Формат : UTF-8
Идентификатор кодека : S_TEXT/UTF8
Идентификатор кодека/Информация : UTF-8 Plain Text
Продолжительность : 35 м. 45 с.
Битрейт : 46 бит/сек
Частота кадров : 0,220 кадр/сек
Count of elements : 472
Размер потока : 12,2 Кбайт (0%)
Заголовок : Latin America Spanish
Язык : Spanish
Default : Нет
Forced : Нет
Текст #22
Идентификатор : 25
Формат : UTF-8
Идентификатор кодека : S_TEXT/UTF8
Идентификатор кодека/Информация : UTF-8 Plain Text
Продолжительность : 35 м. 45 с.
Битрейт : 46 бит/сек
Частота кадров : 0,226 кадр/сек
Count of elements : 484
Размер потока : 12,2 Кбайт (0%)
Заголовок : Malay
Язык : Malay
Default : Нет
Forced : Нет
Текст #23
Идентификатор : 26
Формат : UTF-8
Идентификатор кодека : S_TEXT/UTF8
Идентификатор кодека/Информация : UTF-8 Plain Text
Продолжительность : 35 м. 45 с.
Битрейт : 50 бит/сек
Частота кадров : 0,226 кадр/сек
Count of elements : 484
Размер потока : 13,1 Кбайт (0%)
Заголовок : Norwegian
Язык : Norwegian
Default : Нет
Forced : Нет
Текст #24
Идентификатор : 27
Формат : UTF-8
Идентификатор кодека : S_TEXT/UTF8
Идентификатор кодека/Информация : UTF-8 Plain Text
Продолжительность : 35 м. 45 с.
Битрейт : 45 бит/сек
Частота кадров : 0,223 кадр/сек
Count of elements : 478
Размер потока : 11,8 Кбайт (0%)
Заголовок : Polish
Язык : Polish
Default : Нет
Forced : Нет
Текст #25
Идентификатор : 28
Формат : UTF-8
Идентификатор кодека : S_TEXT/UTF8
Идентификатор кодека/Информация : UTF-8 Plain Text
Продолжительность : 35 м. 45 с.
Битрейт : 47 бит/сек
Частота кадров : 0,223 кадр/сек
Count of elements : 479
Размер потока : 12,3 Кбайт (0%)
Заголовок : Portuguese
Язык : Portuguese
Default : Нет
Forced : Нет
Текст #26
Идентификатор : 29
Формат : UTF-8
Идентификатор кодека : S_TEXT/UTF8
Идентификатор кодека/Информация : UTF-8 Plain Text
Продолжительность : 35 м. 45 с.
Битрейт : 49 бит/сек
Частота кадров : 0,227 кадр/сек
Count of elements : 486
Размер потока : 12,9 Кбайт (0%)
Заголовок : Portuguese Brazilian
Язык : Portuguese
Default : Нет
Forced : Нет
Текст #27
Идентификатор : 30
Формат : UTF-8
Идентификатор кодека : S_TEXT/UTF8
Идентификатор кодека/Информация : UTF-8 Plain Text
Продолжительность : 35 м. 45 с.
Битрейт : 52 бит/сек
Частота кадров : 0,227 кадр/сек
Count of elements : 486
Размер потока : 13,7 Кбайт (0%)
Заголовок : Romanian (Romania)
Язык : Romanian
Default : Нет
Forced : Нет
Текст #28
Идентификатор : 31
Формат : UTF-8
Идентификатор кодека : S_TEXT/UTF8
Идентификатор кодека/Информация : UTF-8 Plain Text
Продолжительность : 35 м. 45 с.
Битрейт : 79 бит/сек
Частота кадров : 0,228 кадр/сек
Count of elements : 489
Размер потока : 20,9 Кбайт (0%)
Заголовок : Russian
Язык : Russian
Default : Нет
Forced : Нет
Текст #29
Идентификатор : 32
Формат : UTF-8
Идентификатор кодека : S_TEXT/UTF8
Идентификатор кодека/Информация : UTF-8 Plain Text
Продолжительность : 35 м. 45 с.
Битрейт : 49 бит/сек
Частота кадров : 0,225 кадр/сек
Count of elements : 483
Размер потока : 13,0 Кбайт (0%)
Заголовок : Swedish
Язык : Swedish
Default : Нет
Forced : Нет
Текст #30
Идентификатор : 33
Формат : UTF-8
Идентификатор кодека : S_TEXT/UTF8
Идентификатор кодека/Информация : UTF-8 Plain Text
Продолжительность : 35 м. 45 с.
Битрейт : 131 бит/сек
Частота кадров : 0,228 кадр/сек
Count of elements : 489
Размер потока : 34,5 Кбайт (0%)
Заголовок : Tamil
Язык : Tamil
Default : Нет
Forced : Нет
Текст #31
Идентификатор : 34
Формат : UTF-8
Идентификатор кодека : S_TEXT/UTF8
Идентификатор кодека/Информация : UTF-8 Plain Text
Продолжительность : 35 м. 45 с.
Битрейт : 119 бит/сек
Частота кадров : 0,228 кадр/сек
Count of elements : 489
Размер потока : 31,4 Кбайт (0%)
Заголовок : Telugu
Язык : Telugu
Default : Нет
Forced : Нет
Текст #32
Идентификатор : 35
Формат : UTF-8
Идентификатор кодека : S_TEXT/UTF8
Идентификатор кодека/Информация : UTF-8 Plain Text
Продолжительность : 35 м. 45 с.
Битрейт : 134 бит/сек
Частота кадров : 0,227 кадр/сек
Count of elements : 488
Размер потока : 35,3 Кбайт (0%)
Заголовок : Thai
Язык : Thai
Default : Нет
Forced : Нет
Текст #33
Идентификатор : 36
Формат : UTF-8
Идентификатор кодека : S_TEXT/UTF8
Идентификатор кодека/Информация : UTF-8 Plain Text
Продолжительность : 35 м. 45 с.
Битрейт : 52 бит/сек
Частота кадров : 0,226 кадр/сек
Count of elements : 485
Размер потока : 13,7 Кбайт (0%)
Заголовок : Turkish
Язык : Turkish
Default : Нет
Forced : Нет

Скриншоты:

[Цитировать]



Показать сообщения:    

Текущее время: 05-Окт 01:58

Часовой пояс: UTC + 6


Вы не можете начинать темы
Вы не можете отвечать на сообщения
Вы не можете редактировать свои сообщения
Вы не можете удалять свои сообщения
Вы не можете голосовать в опросах
Вы не можете прикреплять файлы к сообщениям
Вы не можете скачивать файлы

!ВНИМАНИЕ!
Сайт не предоставляет электронные версии произведений, а занимается лишь коллекционированием и каталогизацией ссылок, присылаемых и публикуемых на форуме нашими читателями. Если вы являетесь правообладателем какого-либо представленного материала и не желаете, чтобы ссылка на него находилась в нашем каталоге, свяжитесь с нами, и мы незамедлительно удалим ее. Файлы для обмена на трекере предоставлены пользователями сайта, и администрация не несет ответственности за их содержание. Просьба не заливать файлы, защищенные авторскими правами, а также файлы нелегального содержания!