***Уважаемые пользователи и гости !!! Сайт переехал на новый домен Torrents-club.info. Просьба изменить ваши закладки! ***
 
[ Сегодня идет свободное скачивание без начисления Download ]


Статистика раздачи
Нет
 
   
 
 
 
Суперпитомцы / DC League of Super-Pets (2022) Год выпуска: 2022
Страна: США
Жанр: Мультфильм, фантастика, фэнтези, боевик, комедия
Продолжительность: 01:45:24
Перевод: Профессиональный (многоголосый, закадровый) | Jaskier
Субтитры: английские
Режиссер: Джаред Штерн, Сэм Ливайн

В ролях:
Джон Красински, Киану Ривз, Дуэйн Джонсон, Кейт МакКиннон, Кевин Харт, Наташа Лионн, Диего Луна, Ванесса Байер, Марк Мэрон, Томас Миддлдитч
Описание:
Когда неизвестные злодеи похищают всю Лигу справедливости, пес Супермена по имени Крипто, обладающий такими же способностями, как и его хозяин, берет на себя миссию по их спасению. Для этого Крипто собирает команду из суперпитомцев — самых обычных обитателей приюта, которые неожиданно обрели суперсилу. Среди них — сверхсильный бродяга Эйс, способная становиться гигантской свинья ПиБи, супербыстрая черепаха Мертон и бельчонок Чип, метающий электрические разряды. Сможет ли пушистая Лига суперпитомцев спасти Супермена, а заодно и весь мир?
Качество: WEB-DLRip 720p / 60 FPS
Формат: MKV
Видео кодек: H.264
Аудио кодек: AC3
Видео: x264, 1280 x 536 ( 2,40:1 ), 4036 kbps, 60,000 fps, ( 0.098 bpp)
Аудио#1: Русский, AC-3, 48.0 KHz, 6 ch, 384 Kbps MVO ( Jaskier )

MediaInfo:

x264 [info]: using cpu capabilities: MMX2 SSE2Fast SSSE3 SSE4.2 AVX AVX2 FMA3 LZCNT BMI1 BMI2
x264 [info]: profile High, level 4.1
x264 [info]: frame I:1831 Avg QP:13.07 size: 82805
x264 [info]: frame P:85163 Avg QP:14.71 size: 19349
x264 [info]: frame B:292062 Avg QP:17.86 size: 4752
x264 [info]: consecutive B-frames: 1.5% 2.3% 6.6% 20.3% 42.9% 26.4%
Общее
Уникальный идентификатор : 321865054969105803690271600777361045938 (0xF224F469F376DCDDEAE6229EFBBB39B2)
Полное имя : G:\60 FPS\DC.League.of.Super-Pets.(2022).WEB-DLRip.720p.(60 Fps).mkv
Формат : Matroska
Версия формата : Version 4
Размер файла : 3,25 Гбайт
Продолжительность : 1 ч. 45 м.
Общий поток : 4424 Кбит/сек
Название фильма : Суперпитомцы / DC League of Super-Pets (2022) WEB-DLRip 720p (60 Fps)
Дата кодирования : UTC 2022-09-03 13:45:53
Программа кодирования : mkvmerge v69.0.0 ('Day And Age') 64-bit
Библиотека кодирования : libebml v1.4.2 + libmatroska v1.6.4
Видео
Идентификатор : 1
Формат : AVC
Формат/Информация : Advanced Video Codec
Профиль формата : High@L4.1
Настройки формата : CABAC / 9 Ref Frames
Параметр CABAC формата : Да
Параметр RefFrames формата : 9 кадров
Идентификатор кодека : V_MPEG4/ISO/AVC
Продолжительность : 1 ч. 45 м.
Битрейт : 4036 Кбит/сек
Ширина : 1280 пикселей
Высота : 536 пикселей
Соотношение сторон : 2,40:1
Режим частоты кадров : Постоянный
Частота кадров : 60,000 кадров/сек
Цветовое пространство : YUV
Субдискретизация насыщенности : 4:2:0
Битовая глубина : 8 бит
Тип развёртки : Прогрессивная
Бит/(Пиксели*Кадры) : 0.098
Размер потока : 2,97 Гбайт (91%)
Заголовок : slaventi-69 ( R.G. HD-Films | 60 fps )
Библиотека кодирования : x264 core 130 r2273 b3065e6
Настройки программы : cabac=1 / ref=9 / deblock=1:-3:-3 / analyse=0x3:0x133 / me=umh / subme=9 / psy=1 / psy_rd=1.00:0.00 / mixed_ref=1 / me_range=32 / chroma_me=1 / trellis=2 / 8x8dct=1 / cqm=0 / deadzone=21,11 / fast_pskip=0 / chroma_qp_offset=-2 / threads=8 / lookahead_threads=4 / sliced_threads=0 / nr=0 / decimate=1 / interlaced=0 / bluray_compat=0 / constrained_intra=0 / bframes=5 / b_pyramid=2 / b_adapt=2 / b_bias=0 / direct=1 / weightb=1 / open_gop=0 / weightp=2 / keyint=600 / keyint_min=23 / scenecut=40 / intra_refresh=0 / rc=crf / mbtree=0 / crf=15.2 / qcomp=0.60 / qpmin=0 / qpmax=69 / qpstep=4 / ip_ratio=1.40 / pb_ratio=1.30 / aq=1:1.00
Язык : English
Default : Да
Forced : Нет
Аудио
Идентификатор : 2
Формат : AC-3
Формат/Информация : Audio Coding 3
Коммерческое название : Dolby Digital
Идентификатор кодека : A_AC3
Продолжительность : 1 ч. 45 м.
Вид битрейта : Постоянный
Битрейт : 384 Кбит/сек
Каналы : 6 каналов
Channel layout : L R C LFE Ls Rs
Частота : 48,0 КГц
Частота кадров : 31,250 кадров/сек (1536 SPF)
Битовая глубина : 16 бит
Метод сжатия : С потерями
Размер потока : 289 Мбайт (9%)
Заголовок : MVO [Jaskier]
Язык : Russian
ServiceKind/String : Complete Main
Default : Да
Forced : Нет
Текст #1
Идентификатор : 3
Формат : UTF-8
Идентификатор кодека : S_TEXT/UTF8
Идентификатор кодека/Информация : UTF-8 Plain Text
Продолжительность : 2 с. 378 мс.
Битрейт : 100 бит/сек
ElementCount : 1
Размер потока : 30,0 байт (0%)
Заголовок : Forced
Язык : English
Default : Нет
Forced : Нет
Текст #2
Идентификатор : 4
Формат : UTF-8
Идентификатор кодека : S_TEXT/UTF8
Идентификатор кодека/Информация : UTF-8 Plain Text
Продолжительность : 2 с. 378 мс.
Битрейт : 100 бит/сек
ElementCount : 1
Размер потока : 30,0 байт (0%)
Заголовок : Full
Язык : English
Default : Нет
Forced : Нет
Текст #3
Идентификатор : 5
Формат : UTF-8
Идентификатор кодека : S_TEXT/UTF8
Идентификатор кодека/Информация : UTF-8 Plain Text
Продолжительность : 1 ч. 45 м.
Битрейт : 78 бит/сек
ElementCount : 2158
Размер потока : 60,2 Кбайт (0%)
Заголовок : SDH
Язык : English
Default : Нет
Forced : Нет
Меню
00:00:00.000 : en:Chapter 01
00:06:19.000 : en:Chapter 02
00:17:22.000 : en:Chapter 03
00:27:39.000 : en:Chapter 04
00:39:27.000 : en:Chapter 05
00:45:44.000 : en:Chapter 06
00:52:48.000 : en:Chapter 07
01:01:22.000 : en:Chapter 08
01:06:58.000 : en:Chapter 09
01:22:46.000 : en:Chapter 10
01:30:54.000 : en:Chapter 11
01:35:16.000 : en:Chapter 12

[Цитировать]



Показать сообщения:    

Текущее время: 05-Окт 02:27

Часовой пояс: UTC + 6


Вы не можете начинать темы
Вы не можете отвечать на сообщения
Вы не можете редактировать свои сообщения
Вы не можете удалять свои сообщения
Вы не можете голосовать в опросах
Вы не можете прикреплять файлы к сообщениям
Вы не можете скачивать файлы

!ВНИМАНИЕ!
Сайт не предоставляет электронные версии произведений, а занимается лишь коллекционированием и каталогизацией ссылок, присылаемых и публикуемых на форуме нашими читателями. Если вы являетесь правообладателем какого-либо представленного материала и не желаете, чтобы ссылка на него находилась в нашем каталоге, свяжитесь с нами, и мы незамедлительно удалим ее. Файлы для обмена на трекере предоставлены пользователями сайта, и администрация не несет ответственности за их содержание. Просьба не заливать файлы, защищенные авторскими правами, а также файлы нелегального содержания!