***Уважаемые пользователи и гости !!! Сайт переехал на новый домен Torrents-club.info. Просьба изменить ваши закладки! ***
 
[ Сегодня идет свободное скачивание без начисления Download ]


Статистика раздачи
Нет
 
   
 
 
 
Обитель зла: Последняя глава / Resident Evil: The Final Chapter (2016) [4K, HEVC, HDR, Dolby Vision TV / Blu-Ray Remux] (2160p) Год выпуска: 2016
Жанр: Ужасы, фантастика, боевик, триллер
Выпущено: Франция, Германия, Канада, Австралия, Capcom Entertainment, Impact Pictures, Screen Gems
Продолжительность: 01:46:06
Перевод: Дублированный
Субтитры: Русские
Возраст 18+
В ролях: Милла Йовович, Иэн Глен, Эли Лартер, Шон Робертс, Оуэн Мэкен, Фрайзер Джеймс, Руби Роуз, Уильям Леви, Рола, Эвер Андерсон, Джун Ки Ли

О фильме:
На обломках цитадели демократии Элис вместе с группой выживших дает решающий бой остаткам недобитых буржуев из корпорации "Амбрелла". Преодолевая сопротивление орд чумных мертвецов и разумных крыс-мутантов со светящимися глазами и страдая от полного отсутствия горячего душа, они должны вернуться к источнику местной заразы - городу Раккун-Сити. Там их поджидают отборные участники цирка уродцев и таймер, отсчитывающий последние часы существования человечества.
Обитель зла Последняя глава Resident Evil The Final Chapter 2016 HDRip 1080p Трейлер
Техданные
Качество: Blu-Ray Remux (2160p)
Видео: MPEG-H HEVC, 74.5 Мбит/с, 3840х2160, 23.976 кадр/с
Аудио: Русский (AC3, 6 ch, 640 Кбит/с), украинский (AAC, 2 ch, 192 Кбит/с), английский (E-AC3, 8 ch, 1664 Кбит/с)

Релиз

Все мои релизы Dolby Vision TV имеют однослойный 8 профиль, предназначены для телевизоров LG 2019 г.в. и новее, а также для других ТВ с поддержкой DV.
Этот релиз проверен и идеально работает на LG OLED B9 2019г.в.
Просьба писать в комментариях, кто протестирует и на каких устройствах!
Если ваш ТВ не поддерживает Dolby Vision, но при этом "понимает" 4K HDR, данный релиз будет отлично работать и у вас!
Приятного просмотра!
Обитель зла: Последняя глава / Resident Evil: The Final Chapter / 2016:
Видео: HEVC • 3840x2160 • 74.5 Mbps (Dolby Vision, Version 1.0, dvhe.08.06, BL+RPU, HDR10 compatible / SMPTE ST 2086, HDR10 compatible)
Аудио1: AC3 • 5.1 • 640 kb/s • Дубляж [BD CEE] • RUS
Аудио2: AAC • 2.0 • 192 kb/s • Дубляж [Custom/iTunes] • UKR
Аудио3: E-AC3 • 7.1 • 1664 kb/s • Оригинал [BD EU] • ENG
Субтитры: Русские (Полные)

MediaInfo:

Format                                   : MPEG-4
Format profile                           : Base Media / Version 2
Codec ID                                 : mp42 (isom/mp42/dby1)
File size                                : 57.0 GiB
Duration                                 : 1 h 46 min
Overall bit rate mode                    : Variable
Overall bit rate                         : 76.9 Mb/s
Encoded date                             : UTC 2022-07-22 07:17:28
Tagged date                              : UTC 2022-07-22 07:17:28
Video
ID                                       : 1
Format                                   : HEVC
Format/Info                              : High Efficiency Video Coding
Format profile                           : Main 10@L5.1@High
HDR format                               : Dolby Vision, Version 1.0, dvhe.08.06, BL+RPU, HDR10 compatible / SMPTE ST 2086, HDR10 compatible
Codec ID                                 : hev1
Codec ID/Info                            : High Efficiency Video Coding
Duration                                 : 1 h 46 min
Bit rate                                 : 74.5 Mb/s
Width                                    : 3 840 pixels
Height                                   : 2 160 pixels
Display aspect ratio                     : 16:9
Frame rate mode                          : Constant
Frame rate                               : 23.976 (24000/1001) FPS
Color space                              : YUV
Chroma subsampling                       : 4:2:0 (Type 2)
Bit depth                                : 10 bits
Bits/(Pixel*Frame)                       : 0.375
Stream size                              : 55.2 GiB (97%)
Title                                    : Resident Evil The Final Chapter by TheEqualizer
Default                                  : Yes
Alternate group                          : 1
Encoded date                             : UTC 2022-07-21 19:51:58
Tagged date                              : UTC 2022-07-22 07:19:11
Color range                              : Limited
Color primaries                          : BT.2020
Transfer characteristics                 : PQ
Matrix coefficients                      : BT.2020 non-constant
Mastering display color primaries        : BT.2020
Mastering display luminance              : min: 0.0020 cd/m2, max: 1000 cd/m2
Maximum Content Light Level              : 1084 cd/m2
Maximum Frame-Average Light Level        : 792 cd/m2
Codec configuration box                  : hvcC+dvvC
Audio #1
ID                                       : 4
Format                                   : E-AC-3
Format/Info                              : Enhanced AC-3
Commercial name                          : Dolby Digital Plus
Format profile                           : Blu-ray Disc
Codec ID                                 : ec-3
Duration                                 : 1 h 46 min
Bit rate mode                            : Constant
Bit rate                                 : 1 664 kb/s
Maximum bit rate                         : 1 757 kb/s
Channel(s)                               : 8 channels
Channel layout                           : L R C LFE Ls Rs Lb Rb
Sampling rate                            : 48.0 kHz
Frame rate                               : 31.250 FPS (1536 SPF)
Compression mode                         : Lossy
Stream size                              : 1.23 GiB (2%)
Title                                    : E-AC3 • 7.1 • 1664 kb/s • Оригинал [BD EU]
Language                                 : English
Service kind                             : Complete Main
Default                                  : Yes
Alternate group                          : 1
Tagged date                              : UTC 2022-07-22 07:19:11
Audio #2
ID                                       : 3
Format                                   : AAC LC
Format/Info                              : Advanced Audio Codec Low Complexity
Codec ID                                 : mp4a-40-2
Duration                                 : 1 h 46 min
Bit rate mode                            : Variable
Bit rate                                 : 179 kb/s
Maximum bit rate                         : 269 kb/s / 179 kb/s
Channel(s)                               : 2 channels
Channel layout                           : L R
Sampling rate                            : 44.1 kHz
Frame rate                               : 43.066 FPS (1024 SPF)
Compression mode                         : Lossy
Stream size                              : 136 MiB (0%)
Title                                    : AAC • 2.0 • 192 kb/s • Дубляж [Custom\iTunes]
Language                                 : Ukrainian
Default                                  : Yes
Alternate group                          : 1
Tagged date                              : UTC 2022-07-22 07:19:11
Audio #3
ID                                       : 2
Format                                   : AC-3
Format/Info                              : Audio Coding 3
Commercial name                          : Dolby Digital
Codec ID                                 : ac-3
Duration                                 : 1 h 46 min
Bit rate mode                            : Constant
Bit rate                                 : 640 kb/s
Maximum bit rate                         : 676 kb/s
Channel(s)                               : 6 channels
Channel layout                           : L R C LFE Ls Rs
Sampling rate                            : 48.0 kHz
Frame rate                               : 31.250 FPS (1536 SPF)
Compression mode                         : Lossy
Stream size                              : 486 MiB (1%)
Title                                    : AC3 • 5.1 • 640 kb/s • Дубляж [BD CEE]
Language                                 : Russian
Service kind                             : Complete Main
Default                                  : Yes
Alternate group                          : 1
Tagged date                              : UTC 2022-07-22 07:19:11
Text
ID                                       : 5
Format                                   : Timed Text
Codec ID                                 : tx3g
Duration                                 : 1 h 46 min
Bit rate mode                            : Variable
Bit rate                                 : 51 b/s
Stream size                              : 39.3 KiB (0%)
Title                                    : Full
Language                                 : Russian
Forced                                   : No
Encoded date                             : UTC 2022-07-22 07:19:11
Tagged date                              : UTC 2022-07-22 07:19:11

Скриншоты

MAGNET

Открой меня

magnet:?xt=urn:btih:4A076E93B1D84E0C54E0675D5C8435A5A94F5A5C&dn=Resident%20Evil%20The%20Final%20Chapter%20%282016%29.mp4&tr=http%3a%2f%2ftr1.tor4me.info%2fann%3fuk%3dF5E20kt2HF&tr=http%3a%2f%2ftr1.tor2me.info%2fann%3fuk%3dF5E20kt2HF&tr=http%3a%2f%2ftr1.torrent4me.com%2fann%3fuk%3dF5E20kt2HF&tr=http%3a%2f%2fretracker.local%2fannounce&tr=http%3a%2f%2fxbt.setitagila.ru%3a2710%2fannounce

[Цитировать]



Показать сообщения:    

Текущее время: 06-Окт 03:50

Часовой пояс: UTC + 6


Вы не можете начинать темы
Вы не можете отвечать на сообщения
Вы не можете редактировать свои сообщения
Вы не можете удалять свои сообщения
Вы не можете голосовать в опросах
Вы не можете прикреплять файлы к сообщениям
Вы не можете скачивать файлы

!ВНИМАНИЕ!
Сайт не предоставляет электронные версии произведений, а занимается лишь коллекционированием и каталогизацией ссылок, присылаемых и публикуемых на форуме нашими читателями. Если вы являетесь правообладателем какого-либо представленного материала и не желаете, чтобы ссылка на него находилась в нашем каталоге, свяжитесь с нами, и мы незамедлительно удалим ее. Файлы для обмена на трекере предоставлены пользователями сайта, и администрация не несет ответственности за их содержание. Просьба не заливать файлы, защищенные авторскими правами, а также файлы нелегального содержания!