***Уважаемые пользователи и гости !!! Сайт переехал на новый домен Torrents-club.info. Просьба изменить ваши закладки! ***
 
[ Сегодня идет свободное скачивание без начисления Download ]


Статистика раздачи
Скачал: [ 1 ]
 
   
 
 
 
 
КВН-2022. Высшая лига. Первая 1/2 финала (17.12.2022) WEBRip [H.264/1080p]- Телекомпания: "Первый канал"
Жанр: Юмор
Качество видео: WEBRip
Продолжительность: 01:54:17
Ведущий: Валдис Пельш
Описание:
Что такое КВН - знают, без сомнения, все. В КВН играют во всём мире, это прежде всего молодёжная игра. Постоянные конкурсные задания - "Визитная карточка", "Разминка", "Конкурс капитанов", "Музыкальный конкурс", "Домашнее задание". Игру команд оценивает профессиональное жюри - люди, у которых с чувством юмора всё в порядке, многие из них раньше сами играли в КВН.

Возраст: 12+ (зрителям, достигшим 12 лет)
Видео: AVC/H.264, 1920х1080, ~4370 kbps
Аудио: AC3, 2 ch, 192 kbps

Команды:

«Имени меня»
Сборная МАИ (Москва)
«Юра» (Москва)
«Столик» (Чулым)
«Флэш - Рояль» (Ростов -на-Дону)

MediaInfo:

Общее
Уникальный идентификатор                 : 31502476259365856127455693222392779346 (0x17B327FF04C775F71BB1B7DAFDE25252)
Полное имя                               : D:\1\КВН 2022. Высшая лига. Первая 1_2 (17.12,2022).mkv
Формат                                   : Matroska
Версия формата                           : Version 4
Размер файла                             : 3,64 Гбайт
Продолжительность                        : 1 ч. 54 м.
Общий поток                              : 4 563 Кбит/сек
Дата кодирования                         : UTC 2022-12-18 03:32:31
Программа кодирования                    : mkvmerge v26.0.0 ('In The Game') 32-bit
Библиотека кодирования                   : libebml v1.3.6 + libmatroska v1.4.9 / Lavf58.12.100
Видео
Идентификатор                            : 1
Формат                                   : AVC
Формат/Информация                        : Advanced Video Codec
Профиль формата                          : High@L4
Настройки формата                        : CABAC / 3 Ref Frames
Параметр CABAC формата                   : Да
Параметр RefFrames формата               : 3 кадра
Идентификатор кодека                     : V_MPEG4/ISO/AVC
Продолжительность                        : 1 ч. 54 м.
Битрейт                                  : 4 369 Кбит/сек
Ширина                                   : 1 920 пикселей
Высота                                   : 1 080 пикселей
Соотношение сторон                       : 16:9
Режим частоты кадров                     : Постоянный
Частота кадров                           : 30,000 кадров/сек
Цветовое пространство                    : YUV
Субдискретизация насыщенности            : 4:2:0
Битовая глубина                          : 8 бит
Тип развёртки                            : Прогрессивная
Бит/(Пиксели*Кадры)                      : 0.070
Размер потока                            : 3,49 Гбайт (96%)
Заголовок                                : ISO Media file produced by Google Inc.
Default                                  : Да
Forced                                   : Нет
Цветовой диапазон                        : Limited
Основные цвета                           : BT.709
Характеристики трансфера                 : BT.709
Коэффициенты матрицы                     : BT.709
Аудио
Идентификатор                            : 2
Формат                                   : AC-3
Формат/Информация                        : Audio Coding 3
Коммерческое название                    : Dolby Digital
Идентификатор кодека                     : A_AC3
Продолжительность                        : 1 ч. 54 м.
Вид битрейта                             : Постоянный
Битрейт                                  : 192 Кбит/сек
Каналы                                   : 2 канала
Channel layout                           : L R
Частота                                  : 48,0 КГц
Частота кадров                           : 31,250 кадров/сек (1536 SPF)
Метод сжатия                             : С потерями
Размер потока                            : 157 Мбайт (4%)
Заголовок                                : ISO Media file produced by Google Inc.
Язык                                     : English
Service kind                             : Complete Main
Default                                  : Да
Forced                                   : Нет
Скриншоты:

[Цитировать]



Показать сообщения:    

Текущее время: 25-Апр 03:44

Часовой пояс: UTC + 6


Вы не можете начинать темы
Вы не можете отвечать на сообщения
Вы не можете редактировать свои сообщения
Вы не можете удалять свои сообщения
Вы не можете голосовать в опросах
Вы не можете прикреплять файлы к сообщениям
Вы не можете скачивать файлы

!ВНИМАНИЕ!
Сайт не предоставляет электронные версии произведений, а занимается лишь коллекционированием и каталогизацией ссылок, присылаемых и публикуемых на форуме нашими читателями. Если вы являетесь правообладателем какого-либо представленного материала и не желаете, чтобы ссылка на него находилась в нашем каталоге, свяжитесь с нами, и мы незамедлительно удалим ее. Файлы для обмена на трекере предоставлены пользователями сайта, и администрация не несет ответственности за их содержание. Просьба не заливать файлы, защищенные авторскими правами, а также файлы нелегального содержания!