***Уважаемые пользователи и гости !!! Сайт переехал на новый домен Torrents-club.info. Просьба изменить ваши закладки! ***
 
[ Сегодня идет свободное скачивание без начисления Download ]


Статистика раздачи
Нет
 
   
 
 
 
 
Гринга / Gringa Информация о фильме
Название: Гринга
Оригинальное название: Gringa
Страна: США
Студия: Momentum Films
Жанр: драма, комедия
Год выпуска: 2022
Режиссер: Марни Энг / Marny Eng, Э.Дж. Ферстер / E.J. Foerster
В ролях: Джуди Грир, Роселин Санчес, Стив Зан, Джесс Габор, Gala Montes, Хорхе А. Хименес, Валентина Будзурро, Emma Ramos, Tomas Ruiz, Nico Bracewell
Описание: Проблемная девочка-подросток убегает в Мексику, чтобы найти отца, которого она никогда не знала. Вместе они узнают, что семью можно восстановить, даже если все, что у них есть, это недостающие части.
Скачать семпл
Продолжительность: 01:42:58
Перевод: Профессиональный (многоголосый закадровый) | TVShows
Субтитры: нет
Файл
Качество видео: WEB-DLRip
Формат видео: AVI
Видео: 704x288 (2.40:1), 23.976 fps, XviD build 73 ~1642 kbps avg, 0.338 bit/pixel
Аудио: 48 kHz, AC3 Dolby Digital, 3/2 (L, C, R, l, r) + LFE ch, ~384 kbps
Релиз от: vitolinform (aka Racketa)

MediaInfo

General
Complete name: D:Gringa.2023.WEB-DLRip.avi
Format: AVI
Format/Info: Audio Video Interleave
Format settings: BitmapInfoHeader / WaveFormatEx
File size: 1.46 GiB
Duration: 1 h 42 min
Overall bit rate: 2 035 kb/s
Frame rate: 23.976 FPS
Movie name: Гринга / Gringa (2023) WEB-DLRip
Director: Марни Энг / Marny Eng, Э.Дж. Ферстер / E.J. Foerster
Genre: драма, комедия
Writing application: VirtualDubMod 1.5.10.2 (build 2542/release)
Original source form/Name: Художественный фильм
Copyright: США / Momentum Films
Comment: Rip by vitolinform
Video
ID: 0
Format: MPEG-4 Visual
Format profile: Advanced Simple@L5
Format settings: BVOP1 / Custom Matrix
Format settings, BVOP: 1
Format settings, QPel: No
Format settings, GMC: No warppoints
Format settings, Matrix: Custom
Codec ID: XVID
Codec ID/Hint: XviD
Duration: 1 h 42 min
Bit rate: 1 642 kb/s
Width: 704 pixels
Height: 288 pixels
Display aspect ratio: 2.40:1
Frame rate: 23.976 (24000/1001) FPS
Original frame rate: 23.976 (23976/1000) FPS
Color space: YUV
Chroma subsampling: 4:2:0
Bit depth: 8 bits
Scan type: Progressive
Compression mode: Lossy
Bits/(Pixel*Frame): 0.338
Stream size: 1.18 GiB (81%)
Writing library: XviD 73
Audio
ID: 1
Format: AC-3
Format/Info: Audio Coding 3
Commercial name: Dolby Digital
Codec ID: 2000
Duration: 1 h 42 min
Bit rate mode: Constant
Bit rate: 384 kb/s
Channel(s): 6 channels
Channel layout: L R C LFE Ls Rs
Sampling rate: 48.0 kHz
Frame rate: 31.250 FPS (1536 SPF)
Compression mode: Lossy
Stream size: 283 MiB (19%)
Alignment: Split across interleaves
Interleave, duration: 42 ms (1.00 video frame)
Interleave, preload duration: 500 ms
Title: Russian (MVO, TVShows)
Service kind: Complete Main

Скриншоты

[Цитировать]



Показать сообщения:    

Текущее время: 23-Июл 20:37

Часовой пояс: UTC + 6


Вы не можете начинать темы
Вы не можете отвечать на сообщения
Вы не можете редактировать свои сообщения
Вы не можете удалять свои сообщения
Вы не можете голосовать в опросах
Вы не можете прикреплять файлы к сообщениям
Вы не можете скачивать файлы

!ВНИМАНИЕ!
Сайт не предоставляет электронные версии произведений, а занимается лишь коллекционированием и каталогизацией ссылок, присылаемых и публикуемых на форуме нашими читателями. Если вы являетесь правообладателем какого-либо представленного материала и не желаете, чтобы ссылка на него находилась в нашем каталоге, свяжитесь с нами, и мы незамедлительно удалим ее. Файлы для обмена на трекере предоставлены пользователями сайта, и администрация не несет ответственности за их содержание. Просьба не заливать файлы, защищенные авторскими правами, а также файлы нелегального содержания!