***Уважаемые пользователи и гости !!! Сайт переехал на новый домен Torrents-club.info. Просьба изменить ваши закладки! ***
 
[ Сегодня идет свободное скачивание без начисления Download ]


Статистика раздачи
Нет
 
   
 
 
 
 
- Информация
Оригинальное название: Вечер
Год выпуска: 2023
Жанр: Документальный, аналитика
Ведущая: Ирина Ромалийская
Описание: Белгородская область: новые факты.
Ядерное оружие в Беларуси.
Чечня: из ВСУ к Кадырову.
Есть Реклама - логотип ТВ канала
Выпущено: Чехия, Спутниковый телеканал
"Настоящее время" (Current Time TV)
Продолжительность: 00:59:51
Язык: Русский
Субтитры: Русские
Файл
Формат: mp4
Качество: WEBRip 1080p
Видео: MPEG-4 AVC, 3019 Кбит/с, 1920x1080
Аудио: AAC, 2 ch, 128 Кбит/с

Телеканал Настоящее Время

Мы – телеканал "Настоящее Время". Мы рассказываем о важных новостях и злободневных темах, готовим интересные репортажи и передачи. Мы говорим о том, что обходят стороной официальные СМИ, и стремимся предлагать полный спектр мнений и комментариев по спорным вопросам.
Наша миссия – продвигать демократические ценности и институты, а также права человека, предоставляя аудитории то, что не всегда могут обеспечить местные СМИ: новости без цензуры, ответственный обмен мнениями, открытое обсуждение проблем.
​Информационно-аналитические телепередачи под брендом "Настоящее Время" распространяются в сетях десятков телекомпаний-партнеров, а также в интернете.

Тема выпуска

"Русский добровольческий корпус" заявляет: снова зашли на территорию России.
У нас — эксклюзивное интервью с бойцом легиона "Свобода России".
Москва и Минск подписали документы о размещении российского ядерного оружия в Беларуси. Кто им будет управлять? И есть ли вообще в этом военный смысл?
Новые поставки оружия согласовали на очередном заседании в формате "Рамштайн".
Расскажем, что получит Украина.
Кто такой чеченец Джамбетов?
Он воевал за Украину, а теперь вернулся в Чечню и присягнул на верность Рамзану Кадырову.
В прямом эфире — интервью с премьер-министром Ичкерии в изгнании Ахмедом Закаевым.
Нагорный Карабах: Армения и Азербайджан договорились о взаимном признании территориальной целостности друг друга.
Расскажем детали.

MediaInfo

Общее
Полное имя : D:\nastojashhee_vremja_vecher_25_05_2023.mp4
Формат : MPEG-4
Профиль формата : Base Media
Идентификатор кодека : isom (isom/iso2/avc1/mp41)
Размер файла : 1, 32 Гбайт
Продолжительность : 59 м. 51 с.
Режим общего битрейта : Переменный
Общий поток : 3 156 Кбит/сек
Название фильма : Белгородская область: новые факты. Ядерное оружие в Беларуси. Чечня: из ВСУ к Кадырову | ВЕЧЕР
Программа кодирования : Lavf59.16.100
Обложка : Yes
Примечание : www.filmgrad.site
Видео
Идентификатор : 1
Формат : AVC
Формат/Информация : Advanced Video Codec
Профиль формата : Main@L4
Настройки формата : CABAC / 1 Ref Frames
Параметр CABAC формата : Да
Параметр RefFrames формата : 1 кадр
Параметр GOP формата : M=1, N=30
Идентификатор кодека : avc1
Идентификатор кодека/Информация : Advanced Video Coding
Продолжительность : 59 м. 51 с.
Битрейт : 3 019 Кбит/сек
Ширина : 1 920 пикселей
Высота : 1 080 пикселей
Соотношение сторон : 16:9
Режим частоты кадров : Переменный
Частота кадров : 30, 000 кадров/сек
Минимальная частота кадров : 29, 412 кадров/сек
Максимальная частота кадров : 30, 303 кадров/сек
Цветовое пространство : YUV
Субдискретизация насыщенности : 4:2:0
Битовая глубина : 8 бит
Тип развёртки : Прогрессивная
Бит/(Пиксели*Кадры) : 0.049
Размер потока : 1, 26 Гбайт (96%)
Цветовой диапазон : Limited
Основные цвета : BT.709
Характеристики трансфера : BT.709
Коэффициенты матрицы : BT.709
Codec configuration box : avcC
Аудио
Идентификатор : 2
Формат : AAC LC
Формат/Информация : Advanced Audio Codec Low Complexity
Идентификатор кодека : mp4a-40-2
Продолжительность : 59 м. 51 с.
Вид битрейта : Переменный
Битрейт : 128 Кбит/сек
Максимальный битрейт : 130 Кбит/сек
Каналы : 2 канала
Channel layout : L R
Частота : 44, 1 КГц
Частота кадров : 43, 066 кадра/сек (1024 SPF)
Метод сжатия : С потерями
Размер потока : 54, 8 Мбайт (4%)
Default : Да
Alternate group : 1
-https://www.youtube.com/shorts/_0i_GZW5Utw-

[Цитировать]



Показать сообщения:    

Текущее время: 27-Май 21:27

Часовой пояс: UTC + 6


Вы не можете начинать темы
Вы не можете отвечать на сообщения
Вы не можете редактировать свои сообщения
Вы не можете удалять свои сообщения
Вы не можете голосовать в опросах
Вы не можете прикреплять файлы к сообщениям
Вы не можете скачивать файлы

!ВНИМАНИЕ!
Сайт не предоставляет электронные версии произведений, а занимается лишь коллекционированием и каталогизацией ссылок, присылаемых и публикуемых на форуме нашими читателями. Если вы являетесь правообладателем какого-либо представленного материала и не желаете, чтобы ссылка на него находилась в нашем каталоге, свяжитесь с нами, и мы незамедлительно удалим ее. Файлы для обмена на трекере предоставлены пользователями сайта, и администрация не несет ответственности за их содержание. Просьба не заливать файлы, защищенные авторскими правами, а также файлы нелегального содержания!