***Уважаемые пользователи и гости !!! Сайт переехал на новый домен Torrents-club.info. Просьба изменить ваши закладки! ***
 
[ Сегодня идет свободное скачивание без начисления Download ]


Статистика раздачи
Нет
 
   
 
 
 
Ведьмак / The Witcher Информация о фильме
Название: Ведьмак
Оригинальное название: The Witcher
Год выхода: 2023
Жанр: Фэнтези, боевик, драма, детектив, приключения
Режиссер: Стивен Серджик, Алик Сахаров, Шарлотта Брандстром
В ролях: Генри Кавилл, Фрейя Аллан, Аня Чалотра, Имон Фэррен, МайАнна Бёринг, Мими Дивени, Уилсон Раджу-Пухальте, Джои Бэти, Анна Шаффер, Ройс Пирресон и другие.
О фильме: Ведьмак Геральт, мутант и убийца чудовищ, на своей верной лошади по кличке Плотва путешествует по Континенту. За тугой мешочек чеканных монет этот мужчина избавит вас от всякой настырной нечисти — хоть от чудищ болотных, оборотней и даже заколдованных принцесс. В сельской глуши местную девушку Йеннифэр, которой сильно не повезло с внешностью, зато посчастливилось иметь способности к магии, отец продаёт колдунье в ученицы. А малолетняя наследница королевства Цинтра по имени Цири вынуждена пуститься в бега, когда их страну захватывает империя Нильфгаард. Судьбы этих троих окажутся тесно связаны, но скоро сказка сказывается, да не скоро дело делается.

Страна: США, Польша
Студия: Netflix, Pioneer Stilking Films, Platige Image, Sean Daniel Company
Продолжительность: ~ 01:00:00
Перевод: Профессиональный (многоголосый закадровый) - LostFilm
Файл
Качество: WEB-DLRip
Формат: AVI
Видео: XviD, 704x352 (2,000), 24,000 кадров/сек, ~ 1600 Кбит/сек
Аудио 1: AC3, 48,0 kHz, 2 ch, 192 Кбит/сек [Rus]
Аудио 2: AC3, 48,0 kHz, 2 ch, 192 Кбит/сек [Eng]
Субтитры: Отсутствуют
Реклама: Отсутствует
Релиз от: lipovan60

Список серий

01 - Шаэрраведд / Shaerrawed
02 - Разделенные / Unbound
03 - Воссоединение / Reunion
04 - Приглашение / The Invitation
05 - Искусство иллюзии / The Art of Illusion
06 - У каждого есть план, пока ему не врежут по лицу / Everybody Has a Plan 'Til They Get Punched in the Face
07 - Из огня на сковородку / Out of the Fire, Into the Frying Pan
08 - Цена Хаоса / The Cost of Chaos

MediaInfo

Общее
Полное имя : E:The.Witcher.S03.WEB-DLRip.RGzsRutrаckerThe.Witcher.S03E01.WEB-DLRip.RGzsRutrаcker.avi
Формат : AVI
Формат/Информация : Audio Video Interleave
Настройки формата : BitmapInfoHeader / WaveFormatEx
Размер файла : 899 Мбайт
Продолжительность : 1 ч. 2 м.
Общий поток : 1 998 Кбит/сек
Частота кадров : 24,000 кадра/сек
Программа кодирования : VirtualDubMod 1.5.10.3 (build 2550/release)
Библиотека кодирования : VirtualDubMod build 2550/release
Видео
Идентификатор : 0
Формат : MPEG-4 Visual
Профиль формата : Advanced Simple@L4
Параметр BVOP формата : Нет
Параметр QPel формата : Нет
Параметр GMC формата : Без точки перехода
Параметр матрицы формата : Default (MPEG)
Идентификатор кодека : XVID
Идентификатор кодека/Подсказка : XviD
Продолжительность : 1 ч. 2 м.
Битрейт : 1 600 Кбит/сек
Ширина : 704 пикселя
Высота : 352 пикселя
Соотношение сторон : 2,000
Частота кадров : 24,000 кадра/сек
Цветовое пространство : YUV
Субдискретизация насыщенности : 4:2:0
Битовая глубина : 8 бит
Тип развёртки : Прогрессивная
Метод сжатия : С потерями
Бит/(Пиксели*Кадры) : 0.269
Размер потока : 720 Мбайт (80%)
Библиотека кодирования : XviD 69
Аудио #1
Идентификатор : 1
Формат : AC-3
Формат/Информация : Audio Coding 3
Коммерческое название : Dolby Digital
Идентификатор кодека : 2000
Продолжительность : 1 ч. 2 м.
Вид битрейта : Постоянный
Битрейт : 192 Кбит/сек
Каналы : 2 канала
Channel layout : L R
Частота : 48,0 КГц
Частота кадров : 31,250 кадров/сек (1536 SPF)
Метод сжатия : С потерями
Размер потока : 86,4 Мбайт (10%)
Выравнивание : Разделение по промежуткам
Продолжительность промежутка : 42 мс. (1,00 видеокадр)
Время предзагрузки промежутка : 500 мс.
Service kind : Complete Main
Аудио #2
Идентификатор : 2
Формат : AC-3
Формат/Информация : Audio Coding 3
Коммерческое название : Dolby Digital
Идентификатор кодека : 2000
Продолжительность : 1 ч. 2 м.
Вид битрейта : Постоянный
Битрейт : 192 Кбит/сек
Каналы : 2 канала
Channel layout : L R
Частота : 48,0 КГц
Частота кадров : 31,250 кадров/сек (1536 SPF)
Метод сжатия : С потерями
Размер потока : 86,4 Мбайт (10%)
Выравнивание : Разделение по промежуткам
Продолжительность промежутка : 42 мс. (1,00 видеокадр)
Время предзагрузки промежутка : 500 мс.
Service kind : Complete Main

Скриншоты

[Цитировать]



Показать сообщения:    

Текущее время: 02-Окт 21:26

Часовой пояс: UTC + 6


Вы не можете начинать темы
Вы не можете отвечать на сообщения
Вы не можете редактировать свои сообщения
Вы не можете удалять свои сообщения
Вы не можете голосовать в опросах
Вы не можете прикреплять файлы к сообщениям
Вы не можете скачивать файлы

!ВНИМАНИЕ!
Сайт не предоставляет электронные версии произведений, а занимается лишь коллекционированием и каталогизацией ссылок, присылаемых и публикуемых на форуме нашими читателями. Если вы являетесь правообладателем какого-либо представленного материала и не желаете, чтобы ссылка на него находилась в нашем каталоге, свяжитесь с нами, и мы незамедлительно удалим ее. Файлы для обмена на трекере предоставлены пользователями сайта, и администрация не несет ответственности за их содержание. Просьба не заливать файлы, защищенные авторскими правами, а также файлы нелегального содержания!