***Уважаемые пользователи и гости !!! Сайт переехал на новый домен Torrents-club.info. Просьба изменить ваши закладки! ***
 
[ Сегодня идет свободное скачивание без начисления Download ]


Статистика раздачи
Скачал: [ 4 ]
 
   
 
 
 
 
Информация о мультфильме
Название: Мавка. Лесная песня
Оригинальное название: Мавка. Лісова пісня / Mavka: The Forest Song
Год выхода: 2023
Жанр: мультфильм, фэнтези, комедия
Режиссер: Александра Рубан, Олег Маламуж
В ролях: Артём Пивоваров, Елена Кравец, Юлия Санина, Михайло Хома, Наталия Сумская, Никки Томас, Назар Заднепровский, Олег Скрипка, Нина Матвиенко
О мультфильме: Древний волшебный Лес никогда не пускал людей в свои таинственные глубины. Люди из соседнего села и сами держались от него подальше — думали, что Лес опасен, потому что в нем обитают загадочные лесные существа. И вдруг произошло чудо. Мавка — одна из тех самых лесных созданий, душа Леса и его будущая царица, — и Лукаш, простой деревенский кузнец, полюбили друг друга. Но их миры пошли войной друг на друга. А все из-за появления в селе коварной фабрикантши Килины, которая построила рядом с лесом фабрику, задумав уничтожить Лес.

Выпущено: Украина / Animagrad, FILM.UA Group
Продолжительность: 01:39:04
Перевод #1: Профессиональный (многоголосый) | Jaskier | RUS
Перевод #2: Оригинал | UKR
Формат: MKV
Качество: BDRip-AVC
Видео: MPEG-4 AVC, 1024x428 (2.40:1), 24.000 fps, 2023 Kbps, 0.192 bit/pixel
Аудио 1: 48 kHz, AC3, 5.1, 384 Kbps | RUS
Аудио 2: 48 kHz, AC3, 5.1, 448 Kbps | UKR

МИ

General
Unique ID : 239530715012643036757604228365425340335 (0xB433F00AC50EC4EEA4EA8B2B88986FAF)
Complete name : D:MavkaLisovapisnya2023.BDRip.AVC.ExKinoRay.mkv
Format : Matroska
Format version : Version 4 / Version 2
File size : 1.98 GiB
Duration : 1 h 39 min
Overall bit rate : 2 854 kb/s
Movie name : Мавка. Лісова пісня 2023 from ExKinoRay
Encoded date : UTC 2023-08-21 16:25:29
Writing application : mkvmerge v7.6.0 ('Garden of Dreams') 32bit built on Feb 11 2015 00:18:47
Writing library : libebml v1.3.1 + libmatroska v1.4.2
Video
ID : 1
Format : AVC
Format/Info : Advanced Video Codec
Format profile : High@L4.1
Format settings, CABAC : Yes
Format settings, ReFrames : 10 frames
Codec ID : V_MPEG4/ISO/AVC
Duration : 1 h 39 min
Bit rate : 2 023 kb/s
Width : 1 024 pixels
Height : 428 pixels
Display aspect ratio : 2.40:1
Frame rate mode : Constant
Frame rate : 24.000 FPS
Color space : YUV
Chroma subsampling : 4:2:0
Bit depth : 8 bits
Scan type : Progressive
Bits/(Pixel*Frame) : 0.192
Stream size : 1.40 GiB (71%)
Title : Enigma
Writing library : x264 core 164 r3107+58M ae98796 t_mod_New [(8 & 10)-Enigma- X86_64]
Encoding settings : cabac=1 / ref=10 / deblock=1:-1:-2 / analyse=0x3:0x133 / me=umh / subme=10 / psy=1 / fade_compensate=0.00 / psy_rd=1.00:0.00 / mixed_ref=1 / me_range=32 / chroma_me=1 / trellis=2 / 8x8dct=1 / cqm=0 / deadzone=21,11 / fast_pskip=0 / chroma_qp_offset=-2 / threads=12 / lookahead_threads=3 / sliced_threads=0 / nr=0 / decimate=0 / interlaced=0 / bluray_compat=0 / constrained_intra=0 / fgo=0 / bframes=10 / b_pyramid=2 / b_adapt=2 / b_bias=0 / direct=3 / weightb=1 / open_gop=0 / weightp=2 / keyint=240 / keyint_min=24 / scenecut=40 / intra_refresh=0 / rc=2pass / mbtree=0 / bitrate=2023 / ratetol=1.0 / qcomp=0.60 / qpmin=0:0:0 / qpmax=69:69:69 / qpstep=4 / cplxblur=20.0 / qblur=0.5 / ip_ratio=1.40 / pb_ratio=1.30 / aq=1:1.00 / aq-sensitivity=10.00 / aq-factor=1.00:1.00:1.00 / aq2=0 / aq3=0
Language : English
Default : Yes
Forced : No
Color range : Limited
Color primaries : BT.709
Transfer characteristics : BT.709
Matrix coefficients : BT.709
Audio #1
ID : 2
Format : AC-3
Format/Info : Audio Coding 3
Mode extension : CM (complete main)
Format settings, Endianness : Big
Codec ID : A_AC3
Duration : 1 h 39 min
Bit rate mode : Constant
Bit rate : 384 kb/s
Channel(s) : 6 channels
Channel positions : Front: L C R, Side: L R, LFE
Sampling rate : 48.0 kHz
Frame rate : 31.250 FPS (1536 spf)
Compression mode : Lossy
Stream size : 272 MiB (13%)
Title : MVO Jaskier
Language : Russian
Default : Yes
Forced : No
Audio #2
ID : 3
Format : AC-3
Format/Info : Audio Coding 3
Mode extension : CM (complete main)
Format settings, Endianness : Big
Codec ID : A_AC3
Duration : 1 h 38 min
Bit rate mode : Constant
Bit rate : 448 kb/s
Channel(s) : 6 channels
Channel positions : Front: L C R, Side: L R, LFE
Sampling rate : 48.0 kHz
Frame rate : 31.250 FPS (1536 spf)
Compression mode : Lossy
Stream size : 317 MiB (16%)
Title : Original
Language : Ukrainian
Default : No
Forced : No
Menu
00:00:00.000 : :Chapter 1
00:09:25.916 : :Chapter 2
00:17:39.416 : :Chapter 3
00:26:44.625 : :Chapter 4
00:34:33.125 : :Chapter 5
00:43:00.958 : :Chapter 6
00:50:12.083 : :Chapter 7
01:00:55.500 : :Chapter 8
01:07:47.791 : :Chapter 9
01:14:54.666 : :Chapter 10
01:22:44.250 : :Chapter 11
01:30:52.375 : :Chapter 12
01:39:04.000 : :Chapter 13

Скриншоты


[Цитировать]



Показать сообщения:    

Текущее время: 18-Июн 21:08

Часовой пояс: UTC + 6


Вы не можете начинать темы
Вы не можете отвечать на сообщения
Вы не можете редактировать свои сообщения
Вы не можете удалять свои сообщения
Вы не можете голосовать в опросах
Вы не можете прикреплять файлы к сообщениям
Вы не можете скачивать файлы

!ВНИМАНИЕ!
Сайт не предоставляет электронные версии произведений, а занимается лишь коллекционированием и каталогизацией ссылок, присылаемых и публикуемых на форуме нашими читателями. Если вы являетесь правообладателем какого-либо представленного материала и не желаете, чтобы ссылка на него находилась в нашем каталоге, свяжитесь с нами, и мы незамедлительно удалим ее. Файлы для обмена на трекере предоставлены пользователями сайта, и администрация не несет ответственности за их содержание. Просьба не заливать файлы, защищенные авторскими правами, а также файлы нелегального содержания!