***Уважаемые пользователи и гости !!! Сайт переехал на новый домен Torrents-club.info. Просьба изменить ваши закладки! ***
 
[ Сегодня идет свободное скачивание без начисления Download ]


Статистика раздачи
Нет
 
   
 
 
 
 
- Информация
Оригинальное название: Крым Реалии
Год выпуска: 2023
Жанр: Документальный, аналитика
Авторы: Radio Free Europe/Radio Liberty
Ведущий: Radio Free Europe/Radio Liberty
Описание: «Двухсотые‎», дезертиры и штрафбат:
как воюют солдаты из «крымских‎» бригад РФ.
Есть Реклама - логотип ТВ канала
Выпущено: Чехия, Спутниковый телеканал
"Настоящее время" (Current Time TV)
Продолжительность: 00:24:20
Язык: Русский
Субтитры: Русские
Файл
Формат: mp4
Качество: WEBRip 1080p
Видео: MPEG-4 AVC, 4003 Кбит/с, 1920x1080
Аудио: AAC, 2 ch, 128 Кбит/с

Радио Свобода

Радио Свобода видит свою миссию в продвижении демократических ценностей и институтов путем обращения к аудитории тех стран, в которых свобода печати ограничена властью или пока еще не стала нормой общественной жизни. Журналисты Радио Свобода предоставляют своей аудитории то, что ей недоступно из местных средств информации: новости без цензуры, ответственный обмен мнениями, открытое обсуждение проблем.

Тема выпуска

Против украинской армии воюют формирования российских войск из Крыма – 810-я бригада морпехов ЧФ России,
56 десантно-штурмовой полк, добровольческие подразделения «Крым», «БАРС» и другие подразделения, в которых воюют крымчане.
За восемь месяцев этого года Крым.Реалии нашли и проанализировали больше 150 некрологов этих формирований.
За лето 2023 года больше всего похоронок в Крым пришло с Запорожского направления, где идут ожесточенные бои.
В некоторых формированиях, дислоцирующихся в Крыму, созданы подразделения «Шторм-Z», в которые набирают заключенных.
Российские военнослужащие крымских частей жалуются, что их ссылают на передовую в «Шторм-Z» в качестве наказания.
Сообщают и об избиениях. В 810-й бригаде морской пехоты ЧФ зафиксирован случай самоубийства мобилизованного.
Официальной открытой статистики по количеству погибших россиян нет.
Минобороны России в последний раз озвучивало цифру потерь 21 сентября 2022 года,
тогда министр обороны РФ Сергей Шойгу назвал цифру в 5937 человек убитыми.
Собственное исследование с помощью двух независимых методов провели журналисты «Медузы» и «Медиазоны».
47 тысяч российских солдат погибло в Украине с февраля 2022 года по май 2023 года – таковы выводы их исследования.

MediaInfo

Общее
Полное имя : D:\krym_realii_16_09_2023.mp4
Формат : MPEG-4
Профиль формата : Base Media
Идентификатор кодека : isom (isom/iso2/avc1/mp41)
Размер файла : 721 Мбайт
Продолжительность : 24 м. 20 с.
Общий поток : 4 138 Кбит/сек
Частота кадров : 25, 000 кадров/сек
Название фильма : «Двухсотые‎», дезертиры и штрафбат: как воюют солдаты из «крымских‎» бригад РФ | Крым.Реалии
Программа кодирования : Lavf59.16.100
Обложка : Yes
Примечание : www.filmgrad.site
Видео
Идентификатор : 1
Формат : AVC
Формат/Информация : Advanced Video Codec
Профиль формата : High@L4
Настройки формата : CABAC / 3 Ref Frames
Параметр CABAC формата : Да
Параметр RefFrames формата : 3 кадра
Идентификатор кодека : avc1
Идентификатор кодека/Информация : Advanced Video Coding
Продолжительность : 24 м. 20 с.
Битрейт : 4 003 Кбит/сек
Ширина : 1 920 пикселей
Высота : 1 080 пикселей
Соотношение сторон : 16:9
Режим частоты кадров : Постоянный
Частота кадров : 25, 000 кадров/сек
Цветовое пространство : YUV
Субдискретизация насыщенности : 4:2:0
Битовая глубина : 8 бит
Тип развёртки : Прогрессивная
Бит/(Пиксели*Кадры) : 0.077
Размер потока : 697 Мбайт (97%)
Заголовок : ISO Media file produced by Google Inc.
Цветовой диапазон : Limited
Основные цвета : BT.709
Характеристики трансфера : BT.709
Коэффициенты матрицы : BT.709
Codec configuration box : avcC
Аудио
Идентификатор : 2
Формат : AAC LC
Формат/Информация : Advanced Audio Codec Low Complexity
Идентификатор кодека : mp4a-40-2
Продолжительность : 24 м. 20 с.
Вид битрейта : Постоянный
Битрейт : 128 Кбит/сек
Каналы : 2 канала
Channel layout : L R
Частота : 44, 1 КГц
Частота кадров : 43, 066 кадра/сек (1024 SPF)
Метод сжатия : С потерями
Размер потока : 22, 3 Мбайт (3%)
Заголовок : ISO Media file produced by Google Inc.
Язык : English
Default : Да
Alternate group : 1

Скриншоты

[Цитировать]



Показать сообщения:    

Текущее время: 18-Июн 21:59

Часовой пояс: UTC + 6


Вы не можете начинать темы
Вы не можете отвечать на сообщения
Вы не можете редактировать свои сообщения
Вы не можете удалять свои сообщения
Вы не можете голосовать в опросах
Вы не можете прикреплять файлы к сообщениям
Вы не можете скачивать файлы

!ВНИМАНИЕ!
Сайт не предоставляет электронные версии произведений, а занимается лишь коллекционированием и каталогизацией ссылок, присылаемых и публикуемых на форуме нашими читателями. Если вы являетесь правообладателем какого-либо представленного материала и не желаете, чтобы ссылка на него находилась в нашем каталоге, свяжитесь с нами, и мы незамедлительно удалим ее. Файлы для обмена на трекере предоставлены пользователями сайта, и администрация не несет ответственности за их содержание. Просьба не заливать файлы, защищенные авторскими правами, а также файлы нелегального содержания!