***Уважаемые пользователи и гости !!! Сайт переехал на новый домен Torrents-club.info. Просьба изменить ваши закладки! ***
 
[ Сегодня идет свободное скачивание без начисления Download ]


Статистика раздачи
Скачал: [ 4 ]
 
   
 
 
 
 
Ограбление из будущего / The Tomorrow Job Информация о фильме
Название: Ограбление из будущего
Оригинальное название: The Tomorrow Job
Год выхода: 2023
Жанр: Боевик, фантастика
Режиссер: Брюс Уэмпл
В ролях: Грант Шумахер, Кейтлин Даффи, Ариэлла Мастроянни, Крис Симперман, Джордж Кэт, Эндрю Гомбас, Кэтрин Даддарио, Рик Монтгомери мл.
О фильме:
Банда Ли использует наркотик, чтобы путешествовать во времени. Они попадают в будущее, где совершают ограбления без последствий и наказания. У Ли и его сообщников есть четкие правила, которые нельзя нарушать, путешествуя во времени. Когда герои забывают о них, им приходится исправлять свои ошибки, чтобы предотвратить катастрофические последствия. «Ограбление из будущего» — фантастический боевик о путешествиях во времени.

Страна: США
Студия: СиПиАй Филмз / CPI Films, Traverse Media
Продолжительность: 01:44:55
Перевод: Дублированный | СиПиАй Филмз / CPI Films
[Файл
Формат: Matroska
Качество: WEB-DLRip-AVC | Локализованная версия
Видео: 1024x438 at 24.00 fps, x264@L4.1, ~1592 kbps
Аудио: AC3, 6 ch, ~384 kbps - | Русский |
Субтитры: Отсутствуют

M/I

x264 [info]: frame I:1451 Avg QP:16.02 size: 56519
x264 [info]: frame P:33512 Avg QP:18.22 size: 20096
x264 [info]: frame B:116123 Avg QP:20.89 size: 4280
General
Unique ID : 114877603433748997277321469266827712395 (0x566C9F23BFF84A7B4E73551607CC978B)
Complete name : I:The.Tomorrow.Job.2023.DUB.Local.WEB-DLRip.x264.seleZen.mkv
Format : Matroska
Format version : Version 4
File size : 1.45 GiB
Duration : 1 h 44 min
Overall bit rate : 1 978 kb/s
Frame rate : 24.000 FPS
Movie name : The.Tomorrow.Job.2023.DUB.Local.WEB-DLRip.x264.seleZen
Encoded date : 2023-09-17 07:49:08 UTC
Writing application : mkvmerge v79.0 ('Funeral Pyres') 64-bit
Writing library : libebml v1.4.4 + libmatroska v1.7.1
Cover : Yes
Attachments : cover.jpg / small_cover.jpg
Video
ID : 1
Format : AVC
Format/Info : Advanced Video Codec
Format profile : High@L4.1
Format settings : CABAC / 10 Ref Frames
Format settings, CABAC : Yes
Format settings, Reference : 10 frames
Codec ID : V_MPEG4/ISO/AVC
Duration : 1 h 44 min
Bit rate : 1 592 kb/s
Width : 1 024 pixels
Height : 438 pixels
Display aspect ratio : 2.35:1
Frame rate mode : Constant
Frame rate : 24.000 FPS
Color space : YUV
Chroma subsampling : 4:2:0
Bit depth : 8 bits
Scan type : Progressive
Bits/(Pixel*Frame) : 0.148
Stream size : 1.17 GiB (80%)
Title : -=DoMiNo=-
Writing library : x264 core 164 r3107+58M ae98796 t_mod_New | by -=DoMiNo=- | X86_64]
Encoding settings : cabac=1 / ref=10 / deblock=1:-1:-1 / analyse=0x3:0x133 / me=umh / subme=10 / psy=1 / fade_compensate=0.00 / psy_rd=1.05:0.15 / mixed_ref=1 / me_range=32 / chroma_me=1 / trellis=2 / 8x8dct=1 / cqm=0 / deadzone=21,11 / fast_pskip=0 / chroma_qp_offset=-3 / threads=17 / lookahead_threads=3 / sliced_threads=0 / nr=0 / decimate=0 / interlaced=0 / bluray_compat=0 / constrained_intra=0 / fgo=0 / bframes=12 / b_pyramid=2 / b_adapt=2 / b_bias=0 / direct=3 / weightb=1 / open_gop=0 / weightp=2 / keyint=240 / keyint_min=24 / scenecut=40 / intra_refresh=0 / rc_lookahead=60 / rc=2pass / mbtree=0 / bitrate=1592 / ratetol=1.0 / qcomp=0.70 / qpmin=0:0:0 / qpmax=69:69:69 / qpstep=4 / cplxblur=20.0 / qblur=0.5 / vbv_maxrate=50000 / vbv_bufsize=62500 / nal_hrd=none / filler=0 / ip_ratio=1.16 / pb_ratio=1.44 / aq=3:0.90 / aq-sensitivity=10.00 / aq-factor=1.00:1.00:1.00:1.00 / aq2=0 / aq3=0
Language : English
Default : Yes
Forced : No
Color range : Limited
Color primaries : BT.709
Transfer characteristics : BT.709
Matrix coefficients : BT.709
Audio
ID : 2
Format : AC-3
Format/Info : Audio Coding 3
Commercial name : Dolby Digital
Codec ID : A_AC3
Duration : 1 h 44 min
Bit rate mode : Constant
Bit rate : 384 kb/s
Channel(s) : 6 channels
Channel layout : L R C LFE Ls Rs
Sampling rate : 48.0 kHz
Frame rate : 31.250 FPS (1536 SPF)
Compression mode : Lossy
Stream size : 288 MiB (19%)
Title : Дублированный | СиПиАй Филмз / CPI Films
Language : Russian
Service kind : Complete Main
Default : Yes
Forced : No
Menu
00:00:00.000 : en:Глава 01
00:05:50.000 : en:Глава 02
00:11:40.000 : en:Глава 03
00:17:30.000 : en:Глава 04
00:23:20.000 : en:Глава 05
00:29:10.000 : en:Глава 06
00:35:00.000 : en:Глава 07
00:40:50.000 : en:Глава 08
00:46:40.000 : en:Глава 09
00:52:30.000 : en:Глава 10
00:58:20.000 : en:Глава 11
01:04:10.000 : en:Глава 12
01:10:00.000 : en:Глава 13
01:15:50.000 : en:Глава 14
01:21:40.000 : en:Глава 15
01:27:30.000 : en:Глава 16
01:33:20.000 : en:Глава 17
01:39:10.000 : en:Глава 18

Скриншоты


[Цитировать]



Показать сообщения:    

Текущее время: 23-Июл 19:53

Часовой пояс: UTC + 6


Вы не можете начинать темы
Вы не можете отвечать на сообщения
Вы не можете редактировать свои сообщения
Вы не можете удалять свои сообщения
Вы не можете голосовать в опросах
Вы не можете прикреплять файлы к сообщениям
Вы не можете скачивать файлы

!ВНИМАНИЕ!
Сайт не предоставляет электронные версии произведений, а занимается лишь коллекционированием и каталогизацией ссылок, присылаемых и публикуемых на форуме нашими читателями. Если вы являетесь правообладателем какого-либо представленного материала и не желаете, чтобы ссылка на него находилась в нашем каталоге, свяжитесь с нами, и мы незамедлительно удалим ее. Файлы для обмена на трекере предоставлены пользователями сайта, и администрация не несет ответственности за их содержание. Просьба не заливать файлы, защищенные авторскими правами, а также файлы нелегального содержания!