***Уважаемые пользователи и гости !!! Сайт переехал на новый домен Torrents-club.info. Просьба изменить ваши закладки! ***
 
[ Сегодня идет свободное скачивание без начисления Download ]


Статистика раздачи
Нет
 
   
 
 
 
 
Ла-Ла Ленд / La La Land (2016) [4K, HEVC, HDR / Blu-Ray Remux] (2160p) Год выпуска: 2016
Жанр: Драма, комедия, мелодрама, мюзикл, костюмированный
Выпущено: США, Black Label Media, Gilbert Films, Impostor Pictures, Marc Platt Productions
Режиссер: Дэмьен Шазелл
Продолжительность: 02:07:48
Перевод: Дублированный
Субтитры: Русские, английские
Возраст 16+

В ролях:
Райан Гослинг, Эмма Стоун, Джон Ледженд, Дж.К. Симмонс, Розмари ДеУитт, Финн Уиттрок, Калли Эрнандес, Соноя Мидзуно, Джессика Рот, Том Эверетт Скотт, Джошуа Пенс, Терри Уолтерс, Эмии Конн, Томас Джефферсон Шелтон, Синда Адамс, Клодин Клаудио, Джейсон Фукс, Трэвор Лиссауер, Оливия Хэмилтон, Анна Шазелл, Мариус Де Фриз, Николь Кулон, Дэймон Гаптон, Дэвид Дуглас, Джереми Хадсон, Майлз Андерсон, Бобо Чанг, Меган Фэй, Джон Хайндмэн, Валери Рэй Миллер, Николь Вульф, Коррин Эванс, Кифф ВанденХювел, Зои Джесс Леви, Демпси Паппион, Кэл Беннетт, Хантер Хэмилтон, Дэмиэн Гомес, Кэндис Коук, Лу Бе

О фильме
: Комедийная мелодрама описывает историю отношений старлетки, которая на протяжении многих лет подает кофе участникам прослушиваний. В ее обязанности входит гостеприимность по отношению к звездам и послушание относительно руководства. Ей прекрасно удается справляться со своими обязанностями, ведь главная героиня является простым, добродушным человеком, который всегда может закрыть глаза на слова жестоких людей. Ее жизнь резко меняется после визита известного джазового музыканта. Он вынужден найти подработку, и решает устроиться в бар. Влюбленные быстро находят свою музу и начинают вместе покорять сердца фанатов. Однако нежданный успех быстро превращает их отношения в драму. Оказывается ни она, ни он не могут мириться с популярностью самых дорогих людей. Быть может все дело в ревности?
Ла-Ла Ленд — Русский трейлер (2017)
Техданные
Качество: Blu-Ray Remux (2160p)
Видео: HEVC, 72647 Кбит/с, 3840x2160, 23.976 кадр/с
Аудио: Русский (DTS-HD MA, 6 ch, 3696 Кбит/с), английский (DTS-HD MA, 6 ch, 3840 Кбит/с), (AC3, 2 ch, 224 Кбит/с)

Релиз

Видео: MPEG-H HEVC Video / 72647 kbps / 3840x2160 / 23.976 fps / 16:9 / Main 10 Profile 5.1 High / 4:2:0 / 10 bits / HDR / BT.2020 /
Аудио 1: Russian DTS-HD Master Audio / 5.1 / 48 kHz / 3696 kbps / 24-bit (DTS Core: 5.1 / 48 kHz / 1509 kbps / 24-bit) |Dub, Blu-Ray|
Аудио 2: English DTS-HD Master Audio / 7.1 / 48 kHz / 3840 kbps / 24-bit (DTS Core: 5.1 / 48 kHz / 1509 kbps / 24-bit) |original|
Аудио 3: English AC3 / 2.0 / 48 kHz / 224 kbps / 16 bits |Commentary with writer/director Damien Chazelle and composer Justin Hurwitz|
Субтитры: русские (forced, Blu-Ray, нотабеноид, v3), английские (full, SDH, SDH-Colored)

MediaInfo:

Уникальный идентификатор                 : 175694010322676042667241252763888073343 (0x842D6F8066A122EF9EB1E6F3686D3A7F)
Полное имя                               : G:\HD\Ла-Ла Ленд.2016.UHD.BluRay.Remux.2160p.mkv
Формат                                   : Matroska
Версия формата                           : Version 4 / Version 2
Размер файла                             : 71,8 Гбайт
Продолжительность                        : 2 ч. 7 м.
Общий поток                              : 80,4 Мбит/сек
Дата кодирования                         : UTC 2017-06-19 15:57:26
Программа кодирования                    : mkvmerge v12.0.0 ('Trust / Lust') 64bit
Библиотека кодирования                   : libebml v1.3.4 + libmatroska v1.4.5
Attachments                              : poster.jpg
Видео
Идентификатор                            : 1
Формат                                   : HEVC
Формат/Информация                        : High Efficiency Video Coding
Профиль формата                          : Main 10@L5.1@High
Идентификатор кодека                     : V_MPEGH/ISO/HEVC
Продолжительность                        : 2 ч. 7 м.
Битрейт                                  : 72,6 Мбит/сек
Ширина                                   : 3840 пикселей
Высота                                   : 2160 пикселей
Соотношение сторон                       : 16:9
Режим частоты кадров                     : Постоянный
Частота кадров                           : 23,976 (24000/1001) кадра/сек
Цветовое пространство                    : YUV
Субдискретизация насыщенности            : 4:2:0 (Type 2)
Битовая глубина                          : 10 бит
Бит/(Пиксели*Кадры)                      : 0.365
Размер потока                            : 64,9 Гбайт (90%)
Библиотека кодирования                   : ATEME Titan File 3.7.9 (4.7.9.0)
Default                                  : Да
Forced                                   : Нет
Цветовой диапазон                        : Limited
Основные цвета                           : BT.2020
Характеристики трансфера                 : SMPTE ST 2084
Коэффициенты матрицы                     : BT.2020 non-constant
MasteringDisplay_ColorPrimaries          : R: x=0.680000 y=0.320000, G: x=0.265000 y=0.690000, B: x=0.150000 y=0.060000, White point: x=0.312700 y=0.329000
MasteringDisplay_Luminance               : min: 0.0000 cd/m2, max: 1000.0000 cd/m2
MaxCLL                                   : 1000 cd/m2
MaxFALL                                  : 640 cd/m2
Аудио #1
Идентификатор                            : 2
Формат                                   : DTS
Формат/Информация                        : Digital Theater Systems
Профиль формата                          : MA / Core
Режим                                    : 16
Параметр Endianness формата              : Big
Идентификатор кодека                     : A_DTS
Продолжительность                        : 2 ч. 7 м.
Вид битрейта                             : Переменный / Постоянный
Битрейт                                  : 3696 Кбит/сек / 1509 Кбит/сек
Каналы                                   : 6 каналов
Расположение каналов                     : Front: L C R, Side: L R, LFE
Частота                                  : 48,0 КГц
Частота кадров                           : 93,750 кадра/сек (512 spf)
Битовая глубина                          : 24 бит
Метод сжатия                             : Без потерь / Lossy
Размер потока                            : 3,30 Гбайт (5%)
Заголовок                                : Dub, Blu-Ray
Язык                                     : Russian
Default                                  : Да
Forced                                   : Нет
Аудио #2
Идентификатор                            : 3
Формат                                   : DTS
Формат/Информация                        : Digital Theater Systems
Профиль формата                          : MA / Core
Режим                                    : 16
Параметр Endianness формата              : Big
Идентификатор кодека                     : A_DTS
Продолжительность                        : 2 ч. 7 м.
Вид битрейта                             : Переменный / Постоянный
Битрейт                                  : 3840 Кбит/сек / 1509 Кбит/сек
Каналы                                   : 8 каналов / 6 каналов
Расположение каналов                     : Front: L C R, Side: L R, Back: L R, LFE / Front: L C R, Side: L R, LFE
Частота                                  : 48,0 КГц
Частота кадров                           : 93,750 кадра/сек (512 spf)
Битовая глубина                          : 24 бит
Метод сжатия                             : Без потерь / Lossy
Размер потока                            : 3,42 Гбайт (5%)
Язык                                     : English
Default                                  : Нет
Forced                                   : Нет
Аудио #3
Идентификатор                            : 4
Формат                                   : AC-3
Формат/Информация                        : Audio Coding 3
Режим                                    : Dolby Digital
Параметр Endianness формата              : Big
Идентификатор кодека                     : A_AC3
Продолжительность                        : 2 ч. 7 м.
Вид битрейта                             : Постоянный
Битрейт                                  : 224 Кбит/сек
Каналы                                   : 2 канала
Расположение каналов                     : Front: L R
Частота                                  : 48,0 КГц
Частота кадров                           : 31,250 кадров/сек (1536 spf)
Битовая глубина                          : 16 бит
Метод сжатия                             : С потерями
Размер потока                            : 205 Мбайт (0%)
Заголовок                                : Commentary with writer/director Damien Chazelle and composer Justin Hurwitz
Язык                                     : English
ServiceKind/String                       : Complete Main
Default                                  : Нет
Forced                                   : Нет
Текст #1
Идентификатор                            : 5
Формат                                   : UTF-8
Идентификатор кодека                     : S_TEXT/UTF8
Идентификатор кодека/Информация          : UTF-8 Plain Text
Продолжительность                        : 1 ч. 45 м.
Битрейт                                  : 14 бит/сек
ElementCount                             : 251
Размер потока                            : 11,4 Кбайт (0%)
Заголовок                                : forced
Язык                                     : Russian
Default                                  : Да
Forced                                   : Нет
Текст #2
Идентификатор                            : 6
Формат                                   : UTF-8
Идентификатор кодека                     : S_TEXT/UTF8
Идентификатор кодека/Информация          : UTF-8 Plain Text
Продолжительность                        : 2 ч. 0 м.
Битрейт                                  : 60 бит/сек
ElementCount                             : 1093
Размер потока                            : 53,2 Кбайт (0%)
Заголовок                                : Blu-Ray
Язык                                     : Russian
Default                                  : Нет
Forced                                   : Нет
Текст #3
Идентификатор                            : 7
Формат                                   : UTF-8
Идентификатор кодека                     : S_TEXT/UTF8
Идентификатор кодека/Информация          : UTF-8 Plain Text
Продолжительность                        : 1 ч. 58 м.
Битрейт                                  : 62 бит/сек
ElementCount                             : 816
Размер потока                            : 54,8 Кбайт (0%)
Заголовок                                : нотабеноид
Язык                                     : Russian
Default                                  : Нет
Forced                                   : Нет
Текст #4
Идентификатор                            : 8
Формат                                   : UTF-8
Идентификатор кодека                     : S_TEXT/UTF8
Идентификатор кодека/Информация          : UTF-8 Plain Text
Продолжительность                        : 2 ч. 0 м.
Битрейт                                  : 73 бит/сек
ElementCount                             : 1333
Размер потока                            : 64,6 Кбайт (0%)
Заголовок                                : v3
Язык                                     : Russian
Default                                  : Нет
Forced                                   : Нет
Текст #5
Идентификатор                            : 9
Формат                                   : UTF-8
Идентификатор кодека                     : S_TEXT/UTF8
Идентификатор кодека/Информация          : UTF-8 Plain Text
Продолжительность                        : 1 ч. 59 м.
Битрейт                                  : 51 бит/сек
ElementCount                             : 1210
Размер потока                            : 44,9 Кбайт (0%)
Заголовок                                : full
Язык                                     : English
Default                                  : Нет
Forced                                   : Нет
Текст #6
Идентификатор                            : 10
Формат                                   : UTF-8
Идентификатор кодека                     : S_TEXT/UTF8
Идентификатор кодека/Информация          : UTF-8 Plain Text
Продолжительность                        : 1 ч. 59 м.
Битрейт                                  : 55 бит/сек
ElementCount                             : 1359
Размер потока                            : 49,0 Кбайт (0%)
Заголовок                                : SDH
Язык                                     : English
Default                                  : Нет
Forced                                   : Нет
Текст #7
Идентификатор                            : 11
Формат                                   : UTF-8
Идентификатор кодека                     : S_TEXT/UTF8
Идентификатор кодека/Информация          : UTF-8 Plain Text
Продолжительность                        : 1 ч. 59 м.
Битрейт                                  : 63 бит/сек
ElementCount                             : 1359
Размер потока                            : 56,0 Кбайт (0%)
Заголовок                                : SDH-Colored
Язык                                     : English
Default                                  : Нет
Forced                                   : Нет
Меню
00:00:00.000                             : :0:00:00.000
00:07:06.926                             : :0:07:06.926
00:17:30.883                             : :0:17:30.883
00:26:05.855                             : :0:26:05.855
00:31:14.038                             : :0:31:14.038
00:39:29.075                             : :0:39:29.075
00:46:17.566                             : :0:46:17.566
00:52:11.169                             : :0:52:11.169
00:58:50.360                             : :0:58:50.360
01:05:58.579                             : :1:05:58.579
01:13:01.293                             : :1:13:01.293
01:24:16.301                             : :1:24:16.301
01:31:50.880                             : :1:31:50.880
01:41:10.981                             : :1:41:10.981
01:46:07.611                             : :1:46:07.611
01:56:19.597                             : :1:56:19.597

Скриншоты

MAGNET

Открой меня

magnet:?xt=urn:btih:CC0622E7D770164208702D1B5F7F0A0A1EB7F677&dn=%d0%9b%d0%b0-%d0%9b%d0%b0%20%d0%9b%d0%b5%d0%bd%d0%b4.2016.UHD.BluRay.Remux.2160p.mkv&tr=http%3a%2f%2ftr0.tor2me.info%2fann%3fuk%3dF5E20kt2HF&tr=http%3a%2f%2ftr0.torrent4me.com%2fann%3fuk%3dF5E20kt2HF&tr=http%3a%2f%2ftr0.tor4me.info%2fann%3fuk%3dF5E20kt2HF&tr=http%3a%2f%2fretracker.local%2fannounce&tr=wss%3a%2f%2fwstracker.online&tr=http%3a%2f%2fxbt.setitagila.ru%3a2710%2fannounce

[Цитировать]



Показать сообщения:    

Текущее время: 20-Июл 17:57

Часовой пояс: UTC + 6


Вы не можете начинать темы
Вы не можете отвечать на сообщения
Вы не можете редактировать свои сообщения
Вы не можете удалять свои сообщения
Вы не можете голосовать в опросах
Вы не можете прикреплять файлы к сообщениям
Вы не можете скачивать файлы

!ВНИМАНИЕ!
Сайт не предоставляет электронные версии произведений, а занимается лишь коллекционированием и каталогизацией ссылок, присылаемых и публикуемых на форуме нашими читателями. Если вы являетесь правообладателем какого-либо представленного материала и не желаете, чтобы ссылка на него находилась в нашем каталоге, свяжитесь с нами, и мы незамедлительно удалим ее. Файлы для обмена на трекере предоставлены пользователями сайта, и администрация не несет ответственности за их содержание. Просьба не заливать файлы, защищенные авторскими правами, а также файлы нелегального содержания!