***Уважаемые пользователи и гости !!! Сайт переехал на новый домен Torrents-club.info. Просьба изменить ваши закладки! ***
 
[ Сегодня идет свободное скачивание без начисления Download ]


Статистика раздачи
Нет
 
   
 
 
 
Beyond The Black - Beyond The Black (2CD) - 2023
Год издания: 2023
Страна: Germany
Жанр: Symphonic, Power Metal
Продолжительность: 01:37:24-Лейбл издания: Nuclear Blast
Страна-выпуска диска: Germany
Номер по каталогу: NBR 61514-Формат: FLAC
Битрейт аудио: Lossless
Тип рипа: image +.cue
Наличие сканов в содержимом раздачи: да
-

Трэклист

CD 1 | 00:55:20


01. Is There Anybody Out There? (4:30)
02. Reincarnation (4:14)
03. Free Me (4:02)
04. Winter Is Coming (4:38)
05. Into The Light (4:13)
06. Wide Awake (4:11)
07. Dancing In The Dark (4:06)
08. Raise Your Head (4:19)
09. Not In Our Name (3:41)
10. I Remember Dying (4:16)
11. I Remember Dying (Stranger Reprise) (4:10)
12. Wide Awake (Piano Version) (4:13)
13. Raise Your Head (String Version) (4:54)

CD 2 (Bonus CD) | 00:42:05


01. Is There Anybody Out There? (Instrumental) (4:30)
02. Reincarnation (Instrumental) (4:14)
03. Free Me (Instrumental) (4:00)
04. Winter Is Coming (Instrumental) (4:39)
05. Into The Light (Instrumental) (4:14)
06. Wide Awake (Instrumental) (4:12)
07. Dancing In The Dark (Instrumental) (4:06)
08. Raise Your Head (Instrumental) (4:20)
09. Not In Our Name (Instrumental) (3:41)
10. I Remember Dying (Instrumental) (4:14)
-

Лог создания рипа

CD 1

Exact Audio Copy V1.6 from 23. October 2020
EAC extraction logfile from 14. January 2023, 14:36
Beyond The Black / Beyond The Black
Used drive  : HL-DT-STBD-RE  BE14NU40   Adapter: 1  ID: 0
Read mode               : Secure
Utilize accurate stream : Yes
Defeat audio cache      : Yes
Make use of C2 pointers : No
Read offset correction                      : 6
Overread into Lead-In and Lead-Out          : No
Fill up missing offset samples with silence : Yes
Delete leading and trailing silent blocks   : No
Null samples used in CRC calculations       : Yes
Used interface                              : Native Win32 interface for Win NT & 2000
Used output format : Internal WAV Routines
Sample format      : 44.100 Hz; 16 Bit; Stereo
TOC of the extracted CD
     Track |   Start  |  Length  | Start sector | End sector
    ---------------------------------------------------------
        1  |  0:00.00 |  4:29.40 |         0    |    20214
        2  |  4:29.40 |  4:13.64 |     20215    |    39253
        3  |  8:43.29 |  4:01.15 |     39254    |    57343
        4  | 12:44.44 |  4:37.37 |     57344    |    78155
        5  | 17:22.06 |  4:12.57 |     78156    |    97112
        6  | 21:34.63 |  4:10.29 |     97113    |   115891
        7  | 25:45.17 |  4:05.30 |    115892    |   134296
        8  | 29:50.47 |  4:18.20 |    134297    |   153666
        9  | 34:08.67 |  3:40.20 |    153667    |   170186
       10  | 37:49.12 |  4:15.20 |    170187    |   189331
       11  | 42:04.32 |  4:09.03 |    189332    |   208009
       12  | 46:13.35 |  4:12.35 |    208010    |   226944
       13  | 50:25.70 |  4:53.40 |    226945    |   248959
Range status and errors
Selected range
     Filename C:\Users\Desktop\A\Beyond The Black - Beyond The Black.wav
     Peak level 100.0 %
     Extraction speed 1.8 X
     Range quality 100.0 %
     Test CRC 7726237F
     Copy CRC 7726237F
     Copy OK
No errors occurred
AccurateRip summary
Track  1  not present in database
Track  2  not present in database
Track  3  not present in database
Track  4  not present in database
Track  5  not present in database
Track  6  not present in database
Track  7  not present in database
Track  8  not present in database
Track  9  not present in database
Track 10  not present in database
Track 11  not present in database
Track 12  not present in database
Track 13  not present in database
None of the tracks are present in the AccurateRip database
End of status report

CD 2

Exact Audio Copy V1.6 from 23. October 2020
EAC extraction logfile from 14. January 2023, 15:44
Beyond The Black / Beyond The Black
Used drive  : HL-DT-STBD-RE  BE14NU40   Adapter: 1  ID: 0
Read mode               : Secure
Utilize accurate stream : Yes
Defeat audio cache      : Yes
Make use of C2 pointers : No
Read offset correction                      : 6
Overread into Lead-In and Lead-Out          : No
Fill up missing offset samples with silence : Yes
Delete leading and trailing silent blocks   : No
Null samples used in CRC calculations       : Yes
Used interface                              : Native Win32 interface for Win NT & 2000
Used output format : Internal WAV Routines
Sample format      : 44.100 Hz; 16 Bit; Stereo
TOC of the extracted CD
     Track |   Start  |  Length  | Start sector | End sector
    ---------------------------------------------------------
        1  |  0:00.00 |  4:29.38 |         0    |    20212
        2  |  4:29.38 |  4:13.70 |     20213    |    39257
        3  |  8:43.33 |  3:59.68 |     39258    |    57250
        4  | 12:43.26 |  4:38.70 |     57251    |    78170
        5  | 17:22.21 |  4:13.15 |     78171    |    97160
        6  | 21:35.36 |  4:11.10 |     97161    |   115995
        7  | 25:46.46 |  4:05.07 |    115996    |   134377
        8  | 29:51.53 |  4:19.13 |    134378    |   153815
        9  | 34:10.66 |  3:40.14 |    153816    |   170329
       10  | 37:51.05 |  4:13.26 |    170330    |   189330
Range status and errors
Selected range
     Filename C:\Users\Desktop\A\Beyond The Black - Beyond The Black.wav
     Peak level 100.0 %
     Extraction speed 1.6 X
     Range quality 100.0 %
     Test CRC 019CFB65
     Copy CRC 019CFB65
     Copy OK
No errors occurred
AccurateRip summary
Track  1  not present in database
Track  2  not present in database
Track  3  not present in database
Track  4  not present in database
Track  5  not present in database
Track  6  not present in database
Track  7  not present in database
Track  8  not present in database
Track  9  not present in database
Track 10  not present in database
None of the tracks are present in the AccurateRip database
End of status report

Индексная карта (non-compilant .cue)

CD 1

REM GENRE "Symphonic Power Metal"
REM DATE 2023
REM DISCID AD0CF70D
REM COMMENT "ExactAudioCopy v1.6"
PERFORMER "Beyond The Black"
TITLE "Beyond The Black"
REM COMPOSER ""
REM DISCNUMBER 1
REM TOTALDISCS 2
FILE "Beyond The Black - Beyond The Black.flac" WAVE
  TRACK 01 AUDIO
    TITLE "Is There Anybody Out There?"
    PERFORMER "Beyond The Black"
    REM COMPOSER ""
    INDEX 01 00:00:00
  TRACK 02 AUDIO
    TITLE "Reincarnation"
    PERFORMER "Beyond The Black"
    REM COMPOSER ""
    INDEX 00 04:27:58
    INDEX 01 04:29:40
  TRACK 03 AUDIO
    TITLE "Free Me"
    PERFORMER "Beyond The Black"
    REM COMPOSER ""
    INDEX 00 08:41:47
    INDEX 01 08:43:29
  TRACK 04 AUDIO
    TITLE "Winter Is Coming"
    PERFORMER "Beyond The Black"
    REM COMPOSER ""
    INDEX 00 12:42:68
    INDEX 01 12:44:44
  TRACK 05 AUDIO
    TITLE "Into The Light"
    PERFORMER "Beyond The Black"
    REM COMPOSER ""
    INDEX 00 17:20:12
    INDEX 01 17:22:06
  TRACK 06 AUDIO
    TITLE "Wide Awake"
    PERFORMER "Beyond The Black"
    REM COMPOSER ""
    INDEX 00 21:32:61
    INDEX 01 21:34:63
  TRACK 07 AUDIO
    TITLE "Dancing In The Dark"
    PERFORMER "Beyond The Black"
    REM COMPOSER ""
    INDEX 00 25:43:28
    INDEX 01 25:45:17
  TRACK 08 AUDIO
    TITLE "Raise Your Head"
    PERFORMER "Beyond The Black"
    REM COMPOSER ""
    INDEX 00 29:48:51
    INDEX 01 29:50:47
  TRACK 09 AUDIO
    TITLE "Not In Our Name"
    PERFORMER "Beyond The Black"
    REM COMPOSER ""
    INDEX 00 34:07:02
    INDEX 01 34:08:67
  TRACK 10 AUDIO
    TITLE "I Remember Dying"
    PERFORMER "Beyond The Black"
    REM COMPOSER ""
    INDEX 00 37:47:31
    INDEX 01 37:49:12
  TRACK 11 AUDIO
    TITLE "I Remember Dying (Stranger Reprise)"
    PERFORMER "Beyond The Black"
    REM COMPOSER ""
    INDEX 00 42:02:51
    INDEX 01 42:04:32
  TRACK 12 AUDIO
    TITLE "Wide Awake (Piano Version)"
    PERFORMER "Beyond The Black"
    REM COMPOSER ""
    INDEX 00 46:11:45
    INDEX 01 46:13:35
  TRACK 13 AUDIO
    TITLE "Raise Your Head (String Version)"
    PERFORMER "Beyond The Black"
    REM COMPOSER ""
    INDEX 00 50:24:14
    INDEX 01 50:25:70

CD 2

REM GENRE "Symphonic Power Metal"
REM DATE 2023
REM DISCID 8309DC0A
REM COMMENT "ExactAudioCopy v1.6"
PERFORMER "Beyond The Black"
TITLE "Beyond The Black (Bonus CD)"
REM COMPOSER ""
REM DISCNUMBER 2
REM TOTALDISCS 2
FILE "Beyond The Black - Beyond The Black (Bonus CD).flac" WAVE
  TRACK 01 AUDIO
    TITLE "Is There Anybody Out There? (Instrumental)"
    PERFORMER "Beyond The Black"
    REM COMPOSER ""
    INDEX 01 00:00:00
  TRACK 02 AUDIO
    TITLE "Reincarnation (Instrumental)"
    PERFORMER "Beyond The Black"
    REM COMPOSER ""
    INDEX 00 04:27:56
    INDEX 01 04:29:38
  TRACK 03 AUDIO
    TITLE "Free Me (Instrumental)"
    PERFORMER "Beyond The Black"
    REM COMPOSER ""
    INDEX 00 08:41:51
    INDEX 01 08:43:33
  TRACK 04 AUDIO
    TITLE "Winter Is Coming (Instrumental)"
    PERFORMER "Beyond The Black"
    REM COMPOSER ""
    INDEX 00 12:41:33
    INDEX 01 12:43:26
  TRACK 05 AUDIO
    TITLE "Into The Light (Instrumental)"
    PERFORMER "Beyond The Black"
    REM COMPOSER ""
    INDEX 00 17:20:40
    INDEX 01 17:22:21
  TRACK 06 AUDIO
    TITLE "Wide Awake (Instrumental)"
    PERFORMER "Beyond The Black"
    REM COMPOSER ""
    INDEX 00 21:33:37
    INDEX 01 21:35:36
  TRACK 07 AUDIO
    TITLE "Dancing In The Dark (Instrumental)"
    PERFORMER "Beyond The Black"
    REM COMPOSER ""
    INDEX 00 25:44:40
    INDEX 01 25:46:46
  TRACK 08 AUDIO
    TITLE "Raise Your Head (Instrumental)"
    PERFORMER "Beyond The Black"
    REM COMPOSER ""
    INDEX 00 29:49:56
    INDEX 01 29:51:53
  TRACK 09 AUDIO
    TITLE "Not In Our Name (Instrumental)"
    PERFORMER "Beyond The Black"
    REM COMPOSER ""
    INDEX 00 34:07:73
    INDEX 01 34:10:66
  TRACK 10 AUDIO
    TITLE "I Remember Dying (Instrumental)"
    PERFORMER "Beyond The Black"
    REM COMPOSER ""
    INDEX 00 37:49:24
    INDEX 01 37:51:05
-

для ознакомления:

Смотреть видео
--

[Цитировать]



Показать сообщения:    

Текущее время: 23-Фев 09:31

Часовой пояс: UTC + 6


Вы не можете начинать темы
Вы не можете отвечать на сообщения
Вы не можете редактировать свои сообщения
Вы не можете удалять свои сообщения
Вы не можете голосовать в опросах
Вы не можете прикреплять файлы к сообщениям
Вы не можете скачивать файлы

!ВНИМАНИЕ!
Сайт не предоставляет электронные версии произведений, а занимается лишь коллекционированием и каталогизацией ссылок, присылаемых и публикуемых на форуме нашими читателями. Если вы являетесь правообладателем какого-либо представленного материала и не желаете, чтобы ссылка на него находилась в нашем каталоге, свяжитесь с нами, и мы незамедлительно удалим ее. Файлы для обмена на трекере предоставлены пользователями сайта, и администрация не несет ответственности за их содержание. Просьба не заливать файлы, защищенные авторскими правами, а также файлы нелегального содержания!