***Уважаемые пользователи и гости !!! Сайт переехал на новый домен Torrents-club.info. Просьба изменить ваши закладки! ***
 
[ Сегодня идет свободное скачивание без начисления Download ]


Статистика раздачи
Скачал: [ 2 ]
 
   
 
 
 
Сармат [S01] Информация о фильме
Название: Сармат
Год выхода: 2023
Жанр: Боевик, криминал
Режиссер: Ефрем Назаров
В ролях: Максим Щёголев, Майя Вознесенская, Александра Жилкова, Сергей Комаров, Нино Деисадзе, Олег Доброван, Андрей Давыдов, Олег Каменщиков, Сергей Холмогоров, Александр Штендлер
О фильме:Оперативник главного управления по контролю за оборотом наркотиков МВД России Артем Стеклов совместно с коллегой из Сочи проводит операцию по задержанию Костика, сына крупного сочинского наркоторговца Виктора Хромова. В результате операции Костика арестовывают, а Артем дает против него показания. Опасаясь мести преступников, семью Артема направляют в безопасное место. Однако Костику и его бойцам удается обнаружить местонахождение Артема Стеклова и его семьи. Бандиты совершают нападение на дом оперативника, убивают его жену и тяжело ранят дочь. Желая отомстить, Артем отправляется на юг, чтобы найти убийц жены.

Страна: Россия
Студия: Берг Саунд
Перевод: Не требуется
Файл
Формат: MKV
Качество: WEB-DL 1080p
Видео: MPEG-4 AVC, ~ 5120 Кбит/с, 1920x1080, 25 кадр/с
Аудио: AC3, 2 ch, 256 Кбит/с RUS
Продолжительность: 4 х ~ 00:42:00
Язык: Русский
Субтитры: Русские
Реклама: Отсутствует

МИ

General
Unique ID : 214749975492863351456377608993336632587 (0xA18F5741040E6368A627F89ABE52A50B)
Complete name : G:Sarmat.S01.2023.WEB-DL.1080p.ExKinoRaySarmat.S01.E01.2023.WEB-DL.1080p.ExKinoRay.mkv
Format : Matroska
Format version : Version 4
File size : 1.68 GiB
Duration : 44 min 58 s
Overall bit rate : 5 358 kb/s
Encoded date : UTC 2024-01-25 23:51:24
Writing application : mkvmerge v6.9.1 ('Blue Panther') 64bit built on Apr 18 2014 18:23:38
Writing library : libebml v1.3.0 + libmatroska v1.4.1
Video
ID : 1
Format : AVC
Format/Info : Advanced Video Codec
Format profile : High@L4
Format settings : CABAC / 4 Ref Frames
Format settings, CABAC : Yes
Format settings, Reference frames : 4 frames
Codec ID : V_MPEG4/ISO/AVC
Duration : 44 min 58 s
Bit rate : 5 120 kb/s
Width : 1 920 pixels
Height : 1 080 pixels
Display aspect ratio : 16:9
Frame rate mode : Constant
Frame rate : 25.000 FPS
Color space : YUV
Chroma subsampling : 4:2:0
Bit depth : 8 bits
Scan type : Progressive
Bits/(Pixel*Frame) : 0.099
Stream size : 1.57 GiB (93%)
Writing library : x264 core 152 r2854 e9a5903
Encoding settings : cabac=1 / ref=3 / deblock=1:0:0 / analyse=0x3:0x113 / me=hex / subme=7 / psy=1 / psy_rd=1.00:0.00 / mixed_ref=1 / me_range=16 / chroma_me=1 / trellis=1 / 8x8dct=1 / cqm=0 / deadzone=21,11 / fast_pskip=1 / chroma_qp_offset=-2 / threads=34 / lookahead_threads=5 / sliced_threads=0 / nr=0 / decimate=1 / interlaced=0 / bluray_compat=0 / constrained_intra=0 / bframes=6 / b_pyramid=2 / b_adapt=1 / b_bias=0 / direct=1 / weightb=1 / open_gop=0 / weightp=2 / keyint=50 / keyint_min=26 / scenecut=0 / intra_refresh=0 / rc_lookahead=40 / rc=2pass / mbtree=1 / bitrate=5120 / ratetol=1.0 / qcomp=0.60 / qpmin=0 / qpmax=69 / qpstep=4 / cplxblur=20.0 / qblur=0.5 / vbv_maxrate=7680 / vbv_bufsize=20480 / nal_hrd=none / filler=0 / ip_ratio=1.40 / aq=1:1.00
Language : Russian
Default : Yes
Forced : No
Audio
ID : 2
Format : AC-3
Format/Info : Audio Coding 3
Commercial name : Dolby Digital
Codec ID : A_AC3
Duration : 44 min 58 s
Bit rate mode : Constant
Bit rate : 256 kb/s
Channel(s) : 2 channels
Channel layout : L R
Sampling rate : 48.0 kHz
Frame rate : 31.250 FPS (1536 SPF)
Compression mode : Lossy
Stream size : 82.3 MiB (5%)
Language : Russian
Service kind : Complete Main
Default : Yes
Forced : No
Text
ID : 3
Format : UTF-8
Codec ID : S_TEXT/UTF8
Codec ID/Info : UTF-8 Plain Text
Language : Russian
Default : No
Forced : No

Скриншоты


[Цитировать]



Показать сообщения:    

Текущее время: 23-Июл 19:40

Часовой пояс: UTC + 6


Вы не можете начинать темы
Вы не можете отвечать на сообщения
Вы не можете редактировать свои сообщения
Вы не можете удалять свои сообщения
Вы не можете голосовать в опросах
Вы не можете прикреплять файлы к сообщениям
Вы не можете скачивать файлы

!ВНИМАНИЕ!
Сайт не предоставляет электронные версии произведений, а занимается лишь коллекционированием и каталогизацией ссылок, присылаемых и публикуемых на форуме нашими читателями. Если вы являетесь правообладателем какого-либо представленного материала и не желаете, чтобы ссылка на него находилась в нашем каталоге, свяжитесь с нами, и мы незамедлительно удалим ее. Файлы для обмена на трекере предоставлены пользователями сайта, и администрация не несет ответственности за их содержание. Просьба не заливать файлы, защищенные авторскими правами, а также файлы нелегального содержания!