***Уважаемые пользователи и гости !!! Сайт переехал на новый домен Torrents-club.info. Просьба изменить ваши закладки! ***
 
[ Сегодня идет свободное скачивание без начисления Download ]


Статистика раздачи
Нет
 
   
 
 
 
Мистер и миссис Смит Информация о фильме
Название: Мистер и миссис Смит
Оригинальное название: Mr. & Mrs. Smith
Год выхода: 2024
Жанр: боевик, триллер, комедия, криминал
Режиссер: Кристиан Спренгер
В ролях: Дональд Гловер, Майя Эрскин, Пол Дано, Паркер Поузи, Джон Туртурро, Михаэла Коэл, Роберт Лофтус, Алекс Хюн
О фильме:
Двум агентам необходимо выдавать себя за пару во время опасной миссии. Ситуация осложняется тем, что новоявленные мистер и миссис Смит начинают испытывать симпатию друг к другу.
Страна: США
Студия: Amazon Studios, New Regency Productions, Wells Street Films
Продолжительность: ~ 01:00:00
Перевод: Профессиональный (многоголосый закадровый) Jaskier
Файл
Кодек: MKV
Качество: WEB-DL 1080p
Видео: AVC, 1920x960 (2:1), 24.000 fps, ~ 9986 kbps
Звук:
Аудио 1: Русский, AC-3, 48 kHz, 6 ch, 384 kbps | Jaskier
Аудио 2: Английский, E-AC3, 48 kHz, 6 ch, 640 kbps
Субтитры: Русские, английские (SDH)
Семпл

Список серий

1. Первое свидание / First Date
2. Второе свидание / Second Date
3. Первый отпуск / First Vacation
4. Двойное свидание / Double Date
5. Вы хотите детей? / Do Ypu Want Kids?
6. Терапия для пар (Голые и напуганные) / Couples Therapy (Naked & Afraid)
7. Неверность / Infidelity
8. Разрыв отношений / A Breakup

MediaInfo

General
Unique ID : 221849010982969107537243620730445639045 (0xA6E690BA05C7C02BA8B6858A80C62D85)
Complete name : E:TorrentMr.and.Mrs.Smith.2024.S01.1080p.WEB.H264-JaskierMr.and.Mrs.Smith.2024.S01E01.1080p.WEB.H264-Jaskier.mkv
Format : Matroska
Format version : Version 4
File size : 4.58 GiB
Duration : 58 min 20 s
Overall bit rate : 11.2 Mb/s
Encoded date : UTC 2024-02-04 03:27:57
Writing application : mkvmerge v6.6.0 ('The Edge Of The In Between') built on Dec 1 2013 17:55:00
Writing library : libebml v1.3.0 + libmatroska v1.4.1
Video
ID : 1
Format : AVC
Format/Info : Advanced Video Codec
Format profile : High@L4
Format settings : CABAC / 4 Ref Frames
Format settings, CABAC : Yes
Format settings, Reference frames : 4 frames
Codec ID : V_MPEG4/ISO/AVC
Duration : 58 min 20 s
Bit rate : 9 986 kb/s
Width : 1 920 pixels
Height : 960 pixels
Display aspect ratio : 2.000
Frame rate mode : Constant
Frame rate : 24.000 FPS
Color space : YUV
Chroma subsampling : 4:2:0
Bit depth : 8 bits
Scan type : Progressive
Bits/(Pixel*Frame) : 0.226
Stream size : 4.07 GiB (89%)
Default : Yes
Forced : No
Color range : Limited
Color primaries : BT.709
Transfer characteristics : BT.709
Matrix coefficients : BT.709
Audio #1
ID : 2
Format : AC-3
Format/Info : Audio Coding 3
Commercial name : Dolby Digital
Codec ID : A_AC3
Duration : 58 min 20 s
Bit rate mode : Constant
Bit rate : 384 kb/s
Channel(s) : 6 channels
Channel layout : L R C LFE Ls Rs
Sampling rate : 48.0 kHz
Frame rate : 31.250 FPS (1536 SPF)
Compression mode : Lossy
Stream size : 160 MiB (3%)
Title : Jaskier
Language : Russian
Service kind : Complete Main
Default : Yes
Forced : Yes
Audio #2
ID : 3
Format : E-AC-3
Format/Info : Enhanced AC-3
Commercial name : Dolby Digital Plus
Codec ID : A_EAC3
Duration : 58 min 20 s
Bit rate mode : Constant
Bit rate : 640 kb/s
Channel(s) : 6 channels
Channel layout : L R C LFE Ls Rs
Sampling rate : 48.0 kHz
Frame rate : 31.250 FPS (1536 SPF)
Compression mode : Lossy
Stream size : 267 MiB (6%)
Title : Original
Language : English
Service kind : Complete Main
Default : No
Forced : No
Text #1
ID : 4
Format : UTF-8
Codec ID : S_TEXT/UTF8
Codec ID/Info : UTF-8 Plain Text
Title : Russian
Language : Russian
Default : No
Forced : No
Text #2
ID : 5
Format : UTF-8
Codec ID : S_TEXT/UTF8
Codec ID/Info : UTF-8 Plain Text
Title : English [SDH]
Language : English
Default : No
Forced : No

Скриншоты

[Цитировать]



Показать сообщения:    

Текущее время: 23-Фев 10:06

Часовой пояс: UTC + 6


Вы не можете начинать темы
Вы не можете отвечать на сообщения
Вы не можете редактировать свои сообщения
Вы не можете удалять свои сообщения
Вы не можете голосовать в опросах
Вы не можете прикреплять файлы к сообщениям
Вы не можете скачивать файлы

!ВНИМАНИЕ!
Сайт не предоставляет электронные версии произведений, а занимается лишь коллекционированием и каталогизацией ссылок, присылаемых и публикуемых на форуме нашими читателями. Если вы являетесь правообладателем какого-либо представленного материала и не желаете, чтобы ссылка на него находилась в нашем каталоге, свяжитесь с нами, и мы незамедлительно удалим ее. Файлы для обмена на трекере предоставлены пользователями сайта, и администрация не несет ответственности за их содержание. Просьба не заливать файлы, защищенные авторскими правами, а также файлы нелегального содержания!