***Уважаемые пользователи и гости !!! Сайт переехал на новый домен Torrents-club.info. Просьба изменить ваши закладки! ***
 
[ Сегодня идет свободное скачивание без начисления Download ]


Статистика раздачи
Нет
 
   
 
 
 
- Информация
Оригинальное название: Утро
Год выпуска: 2024
Жанр: Документальный, аналитика
Ведущий: Алексей Александров
Описание: Война распространяется в глубь России.
Мощный взрыв под Ижевском.
Удар по Белгороду.
Такер Карлсон, Путин и кот Твикс.
Судьба Надеждина.
Есть Реклама - логотип ТВ канала
Выпущено: Чехия, Спутниковый телеканал "Настоящее время"
(Current Time TV)
Продолжительность: 00:59:30
Язык: Русский
Субтитры: Русские
Файл
Формат: mp4
Качество: WEBRip 1080p
Видео: MPEG-4 AVC, 2336 Кбит/с, 1920x1080
Аудио: AAC, 2 ch, 128 Кбит/с

Телеканал Настоящее Время

Мы – телеканал "Настоящее Время". Мы рассказываем о важных новостях и злободневных темах, готовим интересные репортажи и передачи. Мы говорим о том, что обходят стороной официальные СМИ, и стремимся предлагать полный спектр мнений и комментариев по спорным вопросам.
Наша миссия – продвигать демократические ценности и институты, а также права человека, предоставляя аудитории то, что не всегда могут обеспечить местные СМИ: новости без цензуры, ответственный обмен мнениями, открытое обсуждение проблем.
​Информационно-аналитические телепередачи под брендом "Настоящее Время" распространяются в сетях десятков телекомпаний-партнеров, а также в интернете.

Тема выпуска

Мощный взрыв под Ижевском.
Соцсети облетели кадры из города Воткинск в Удмуртии.
Взрыв произошёл на Воткинском машиностроительном заводе,
который выпускает ракеты "Искандер" и "Тополь-М".
Агентство ТАСС пишет, что взрыв связан с плановыми испытаниями ракетных двигателей.
Российские военные продолжают захватывать Авдеевку в Донецкой области.
По данным аналитиков проекта Deepstate, захвачена уже примерно одна пятая часть города.
Телеканалу "Настоящее время" удалось получить перехваты переговоров российских военных в Авдеевке.

MediaInfo

Общее
Полное имя : D:\nastojashhee_vremja_utro_08_02_2024.mp4
Формат : MPEG-4
Профиль формата : Base Media
Идентификатор кодека : isom (isom/iso2/avc1/mp41)
Размер файла : 1,03 Гбайт
Продолжительность : 59 м. 30 с.
Общий поток : 2 472 Кбит/сек
Частота кадров : 30,000 кадров/сек
Название фильма : Взрыв под Ижевском. Такер Карлсон, Путин и кот Твикс. Удар по Белгороду. Судьба Надеждина | УТРО
Программа кодирования : Lavf59.16.100
Обложка : Yes
Примечание : https://www.filmgrad.site
Видео
Идентификатор : 1
Формат : AVC
Формат/Информация : Advanced Video Codec
Профиль формата : High@L4
Настройки формата : CABAC / 3 Ref Frames
Параметр CABAC формата : Да
Параметр RefFrames формата : 3 кадра
Идентификатор кодека : avc1
Идентификатор кодека/Информация : Advanced Video Coding
Продолжительность : 59 м. 30 с.
Битрейт : 2 336 Кбит/сек
Ширина : 1 920 пикселей
Высота : 1 080 пикселей
Соотношение сторон : 16:9
Режим частоты кадров : Постоянный
Частота кадров : 30,000 кадров/сек
Цветовое пространство : YUV
Субдискретизация насыщенности : 4:2:0
Битовая глубина : 8 бит
Тип развёртки : Прогрессивная
Бит/(Пиксели*Кадры) : 0.038
Размер потока : 994 Мбайт (94%)
Заголовок : ISO Media file produced by Google Inc.
Цветовой диапазон : Limited
Основные цвета : BT.709
Характеристики трансфера : BT.709
Коэффициенты матрицы : BT.709
Codec configuration box : avcC
Аудио
Идентификатор : 2
Формат : AAC LC
Формат/Информация : Advanced Audio Codec Low Complexity
Идентификатор кодека : mp4a-40-2
Продолжительность : 59 м. 30 с.
Вид битрейта : Постоянный
Битрейт : 128 Кбит/сек
Каналы : 2 канала
Channel layout : L R
Частота : 44,1 КГц
Частота кадров : 43,066 кадра/сек (1024 SPF)
Метод сжатия : С потерями
Размер потока : 54,5 Мбайт (5%)
Заголовок : ISO Media file produced by Google Inc.
Язык : English
Default : Да
Alternate group : 1

[Цитировать]



Показать сообщения:    

Текущее время: 23-Фев 10:00

Часовой пояс: UTC + 6


Вы не можете начинать темы
Вы не можете отвечать на сообщения
Вы не можете редактировать свои сообщения
Вы не можете удалять свои сообщения
Вы не можете голосовать в опросах
Вы не можете прикреплять файлы к сообщениям
Вы не можете скачивать файлы

!ВНИМАНИЕ!
Сайт не предоставляет электронные версии произведений, а занимается лишь коллекционированием и каталогизацией ссылок, присылаемых и публикуемых на форуме нашими читателями. Если вы являетесь правообладателем какого-либо представленного материала и не желаете, чтобы ссылка на него находилась в нашем каталоге, свяжитесь с нами, и мы незамедлительно удалим ее. Файлы для обмена на трекере предоставлены пользователями сайта, и администрация не несет ответственности за их содержание. Просьба не заливать файлы, защищенные авторскими правами, а также файлы нелегального содержания!