***Уважаемые пользователи и гости !!! Сайт переехал на новый домен Torrents-club.info. Просьба изменить ваши закладки! ***
 
[ Сегодня идет свободное скачивание без начисления Download ]


Статистика раздачи
Нет
 
   
 
 
 
 
Оригинальное название: 20/22
Год выхода: 2024
Жанр: Боевик, военный, драма
Выпущено: Россия, Первый канал, BBG PRODUCTION при поддержке Института развития интернета, Военкино, Администрации Донецкой Народной Республики
Режиссер: Андрей Симонов--В ролях: Аристарх Венес, Дарья Кукарских, Александр Югов, Алексей Шевченков, Владимир Карпук, Дмитрий Богдан, Валентин Смирнитский, Сергей Черданцев, Александр Лыков, Хильда Кармен, Виктория Токарева (II), Лев Семашков, Александр Давыдов (III), Кирилл Кузнецов, Юлия Бруякина, Владимир Лавров, Мария Романова--О сериале: Студент журфака Данил отправляется добровольцем в зону проведения СВО, устав от столичного лицемерия. Он сам из Севастополя, и знает про соседнее государство чуть больше, чем его друзья. Его антивоенно настроенная девушка – Алиса, поняв, что ждет ребенка, решает уберечь своего молодого человека от фатальной ошибки и едет за ним, чтобы вернуть. Найти любимого в хаосе войны оказывается непросто. За несколько недель, проведенных в аду штурма Мариуполя, ребята поймут, что мир живет не только в рамках их представлений, а их любовь пройдет испытание на прочность...--Сэмпл--Качество: WEB-DL 1080p
Видео: AVC/H.264, 1920x800, ~5000 Kbps, 25.000 кад/сек
Аудио: E-AC3, 2 ch, 256 Kbps, 48.0 kHz
Продолжительность: 4 x ~ 00:49:00
Язык: Русский--

Дополнительная информация

Весной 2023 года съемки фильма проходили на территории Мариуполя. Так что в объектив камер попали впечатляющие кадры города и образы его жителей. Также сцены снимали в Москве, Московской и Ростовской областях. Главные и эпизодические роли в фильме исполняют молодые артисты, уже заявившие о себе в российском кинопрокате: Аристарх Венес, Дарья Кукарских, Владимир Карпук, Сергей Черданцев, Георгий Солодовник, Александр Югов, Алексей Шевченков и др. Во многих эпизодах принимали участие реальные участники СВО и жители Мариуполя. Также в съемках приняли участие военные корреспонденты Павел Чуприн и Семен Пегов, сыгравшие самих себя.

Тех.данные видеофайла

Общее
Уникальный идентификатор : 58387089876920516729011500714194671374 (0x2BECF1C92D2BCB54A6500AD5CE80970E)
Полное имя : H:\Фильмы\20-22 (2024) WEB-DL 1080p.mkv
Формат : Matroska
Версия формата : Version 4
Размер файла : 5,88 Гбайт
Продолжительность : 2 ч. 40 м.
Общий поток : 5 233 Кбит/сек
Частота кадров : 25,000 кадров/сек
Дата кодирования : 2024-02-24 12:06:56 UTC
Программа кодирования : mkvmerge v75.0.0 ('Goliath') 64-bit
Библиотека кодирования : libebml v1.4.4 + libmatroska v1.7.1-Видео
Идентификатор : 1
Формат : AVC
Формат/Информация : Advanced Video Codec
Профиль формата : High@L4
Настройки формата : CABAC / 3 Ref Frames
Параметр CABAC формата : Да
Параметр RefFrames формата : 3 кадра
Идентификатор кодека : V_MPEG4/ISO/AVC
Продолжительность : 2 ч. 40 м.
Битрейт : 5 000 Кбит/сек
Ширина : 1 920 пикселей
Высота : 800 пикселей
Соотношение сторон : 2,40:1
Режим частоты кадров : Постоянный
Частота кадров : 25,000 кадров/сек
Цветовое пространство : YUV
Субдискретизация насыщенности : 4:2:0
Битовая глубина : 8 бит
Тип развёртки : Прогрессивная
Бит/(Пиксели*Кадры) : 0.130
Размер потока : 5,59 Гбайт (95%)
Заголовок : 20/22 (2024) WEB-DL 1080p
Библиотека кодирования : x264 core 164 r3095 baee400
Настройки программы : cabac=1 / ref=4 / deblock=1:-1:-1 / analyse=0x3:0x133 / me=umh / subme=9 / psy=1 / psy_rd=0.40:1.00 / mixed_ref=1 / me_range=24 / chroma_me=1 / trellis=0 / 8x8dct=1 / cqm=0 / deadzone=21,11 / fast_pskip=1 / chroma_qp_offset=-2 / threads=3 / lookahead_threads=1 / sliced_threads=0 / nr=0 / decimate=1 / interlaced=0 / bluray_compat=0 / stitchable=1 / constrained_intra=0 / bframes=8 / b_pyramid=1 / b_adapt=0 / b_bias=0 / direct=3 / weightb=1 / open_gop=0 / weightp=2 / keyint=75 / keyint_min=38 / scenecut=0 / intra_refresh=0 / rc_lookahead=40 / rc=2pass / mbtree=1 / bitrate=5000 / ratetol=1.0 / qcomp=0.80 / qpmin=1 / qpmax=69 / qpstep=4 / cplxblur=20.0 / qblur=0.5 / vbv_maxrate=7500 / vbv_bufsize=10000 / nal_hrd=none / filler=0 / ip_ratio=1.40 / aq=1:1.00
Язык : Russian
Default : Да
Forced : Нет
Цветовой диапазон : Limited
Основные цвета : BT.709
Характеристики трансфера : BT.709
Коэффициенты матрицы : BT.709-Аудио
Идентификатор : 2
Формат : E-AC-3
Формат/Информация : Enhanced AC-3
Коммерческое название : Dolby Digital Plus
Идентификатор кодека : A_EAC3
Продолжительность : 2 ч. 40 м.
Вид битрейта : Постоянный
Битрейт : 256 Кбит/сек
Каналы : 2 канала
Channel layout : L R
Частота : 48,0 КГц
Частота кадров : 31,250 кадров/сек (1536 SPF)
Метод сжатия : С потерями
Размер потока : 294 Мбайт (5%)
Заголовок : OKKO
Язык : Russian
Service kind : Complete Main
Default : Да
Forced : Нет

Скриншоты

[Цитировать]



Показать сообщения:    

Текущее время: 25-Май 11:37

Часовой пояс: UTC + 6


Вы не можете начинать темы
Вы не можете отвечать на сообщения
Вы не можете редактировать свои сообщения
Вы не можете удалять свои сообщения
Вы не можете голосовать в опросах
Вы не можете прикреплять файлы к сообщениям
Вы не можете скачивать файлы

!ВНИМАНИЕ!
Сайт не предоставляет электронные версии произведений, а занимается лишь коллекционированием и каталогизацией ссылок, присылаемых и публикуемых на форуме нашими читателями. Если вы являетесь правообладателем какого-либо представленного материала и не желаете, чтобы ссылка на него находилась в нашем каталоге, свяжитесь с нами, и мы незамедлительно удалим ее. Файлы для обмена на трекере предоставлены пользователями сайта, и администрация не несет ответственности за их содержание. Просьба не заливать файлы, защищенные авторскими правами, а также файлы нелегального содержания!