***Уважаемые пользователи и гости !!! Сайт переехал на новый домен Torrents-club.info. Просьба изменить ваши закладки! ***
 
[ Сегодня идет свободное скачивание без начисления Download ]


Статистика раздачи
Нет
 
   
 
 
 
-Уральские пельмени. Комическая одиссея (12.04.2024)- Телекомпания: СТС
Жанр: Юмор
Участники:
Дмитрий Брекоткин, Сергей Ершов, Сергей Исаев, Сергей Калугин, Вячеслав Мясников, Александр Попов, Андрей Рожков, Дмитрий Соколов, Максим Ярица, Илана Юрьева, Ксения Корнева и др.
Описание:
Если наши космические корабли бороздят просторы, то где космические борозды?
Если звезды зажигают, то кому это нужно?
Если в космосе снимают фильмы, то когда там появятся кинотеатры?
Эти вопросы останутся без ответа в новой программе «Комическая Одиссея» от Шоу «Уральские Пельмени».

Возраст: 12+ (зрителям, достигшим 12 лет)
Продолжительность: 01:11:48
Качество видео: WEBRip
Субтитры: Отсутствуют
Видео: AVC/H.264, 1920x1080, ~4415 kbps
Аудио: AAC, 2 ch, 128 Kbps

MediaInfo:

Общее
Общее
Уникальный идентификатор                 : 107436314777531756931747041982505881763 (0x50D37B4876D69E2F1D4A46346BBD10A3)
Полное имя                               : G:\Комическая одиссея — Уральские Пельмени (12.04.2024).mkv
Формат                                   : Matroska
Версия формата                           : Version 4
Размер файла                             : 2,28 Гбайт
Продолжительность                        : 1 ч. 11 мин.
Общий битрейт                            : 4 544 Кбит/сек
Частота кадров                           : 25,000 кадров/сек
Дата кодирования                         : 2024-04-13 05:00:10 UTC
Программа кодирования                    : mkvmerge v28.2.0 ('The Awakening') 32-bit
Библиотека кодирования                   : libebml v1.3.6 + libmatroska v1.4.9
Видео
Идентификатор                            : 1
Формат                                   : AVC
Формат/Информация                        : Advanced Video Codec
Профиль формата                          : High@L4
Настройки формата                        : CABAC / 3 Ref Frames
Параметр CABAC формата                   : Да
Параметр RefFrames формата               : 3 кадра
Идентификатор кодека                     : V_MPEG4/ISO/AVC
Продолжительность                        : 1 ч. 11 мин.
Битрейт                                  : 4 414 Кбит/сек
Ширина                                   : 1 920 пикселей
Высота                                   : 1 080 пикселей
Соотношение сторон дисплея               : 16:9
Режим частоты кадров                     : Постоянный
Частота кадров                           : 25,000 кадров/сек
Цветовое пространство                    : YUV
Цветовая субдискретизация                : 4:2:0
Битовая глубина                          : 8 бит
Тип развёртки                            : Прогрессивная
Бит/(Пиксели*Кадры)                      : 0.085
Размер потока                            : 2,21 Гбайт (97%)
По умолчанию                             : Да
Принудительно                            : Нет
Цветовой диапазон                        : Limited
Основные цвета                           : BT.709
Характеристики трансфера                 : BT.709
Коэффициенты матрицы                     : BT.709
Аудио
Идентификатор                            : 2
Формат                                   : AAC LC
Формат/Информация                        : Advanced Audio Codec Low Complexity
Идентификатор кодека                     : A_AAC-2
Продолжительность                        : 1 ч. 11 мин.
Битрейт                                  : 128 Кбит/сек
Канал(-ы)                                : 2 канала
Расположение каналов                     : L R
Частота дискретизации                    : 44,1 КГц
Частота кадров                           : 43,066 кадра/сек (1024 SPF)
Метод сжатия                             : С потерями
Задержка видео                           : 12 мс.
Размер потока                            : 65,7 Мбайт (3%)
Язык                                     : Английский
По умолчанию                             : Да
Принудительно                            : Нет
Скриншоты:
-

[Цитировать]



Показать сообщения:    

Текущее время: 25-Май 10:46

Часовой пояс: UTC + 6


Вы не можете начинать темы
Вы не можете отвечать на сообщения
Вы не можете редактировать свои сообщения
Вы не можете удалять свои сообщения
Вы не можете голосовать в опросах
Вы не можете прикреплять файлы к сообщениям
Вы не можете скачивать файлы

!ВНИМАНИЕ!
Сайт не предоставляет электронные версии произведений, а занимается лишь коллекционированием и каталогизацией ссылок, присылаемых и публикуемых на форуме нашими читателями. Если вы являетесь правообладателем какого-либо представленного материала и не желаете, чтобы ссылка на него находилась в нашем каталоге, свяжитесь с нами, и мы незамедлительно удалим ее. Файлы для обмена на трекере предоставлены пользователями сайта, и администрация не несет ответственности за их содержание. Просьба не заливать файлы, защищенные авторскими правами, а также файлы нелегального содержания!