***Уважаемые пользователи и гости !!! Сайт переехал на новый домен Torrents-club.info. Просьба изменить ваши закладки! ***
 
[ Сегодня идет свободное скачивание без начисления Download ]


Статистика раздачи
Нет
 
   
 
 
 
 
-Охотники за привидениями: Леденящий ужас / Ghostbusters: Frozen Empire Год выпуска: 2024
Страна: США, Канада, Великобритания
Жанр: фантастика, комедия, приключения
Перевод: Дубляж
Субтитры: русские, английские
Продолжительность: 01:55:00
Режиссер: Гил Кинан
В ролях:
Бил Мюрэй, Пол Радд, Кэрри Кун, Финн Вулфхард, Маккенна Грейс, Кумэйл Нанджиани, Пэттон Освальт, Селеста О’Коннор, Логан Ким, Эмили Элин Линд, Джеймс Акастер
Описание:
После событий в Оклахоме Спенглеры возвращаются туда, где все началось, — в легендарную пожарную часть Нью-Йорка. Юным охотникам за привидениями, их маме и мистеру Груберсону предстоит объединиться со своими предшественниками, создавшими сверхсекретную исследовательскую лабораторию, благодаря которой борьба с нечистью вышла на новый уровень. Но обнаружив древний артефакт, герои высвобождают новое зло. Нью-Йорк превращается в ледяную империю прямо посреди июля. Охотники за привидениями должны сделать все, чтобы спасти мир от второго ледникового периода.

Качество: WEBRip - HEVC 1080p | Dolby Vision Profile HDR
Формат: MKV
Видео кодек: H.265
Аудио кодек: AC3
Видео: HEVC, 1 920 x 802 ( 2,39:1 ), 4 922 kbps, 60,000 fps, ( 0.053 bpp) 10bit
Аудио#2: Русский, AC-3, 48.0 KHz, 2 ch, 192 kb/s Дубляж (Soundmasters)
Аудио#3: Русский, AC-3, 48.0 kHz, 2 ch, 192 kb/s Дубляж (MovieDalen)

MediaInfo

Видео
Идентификатор : 1
Формат : HEVC
Формат/Информация : High Efficiency Video Coding
Профиль формата : Main 10@L4.1@Main
HDR format : SMPTE ST 2086, HDR10 compatible
Идентификатор кодека : V_MPEGH/ISO/HEVC
Продолжительность : 1 ч. 54 м.
Битрейт : 4 922 Кбит/сек
Ширина : 1 920 пикселей
Высота : 802 пикселя
Соотношение сторон : 2,39:1
Режим частоты кадров : Постоянный
Частота кадров : 60,000 кадров/сек
Цветовое пространство : YUV
Субдискретизация насыщенности : 4:2:0 (Type 1)
Битовая глубина : 10 бит
Бит/(Пиксели*Кадры) : 0.053
Размер потока : 3,95 Гбайт (93%)
Заголовок : slaventi-69 ( R.G. HD-Films | 60 fps )
Библиотека кодирования : x265 3.5+98-753305aff:[Windows][GCC 12.2.0][64 bit] 10bit
Настройки программы : cpuid=1111039 / frame-threads=2 / numa-pools=4 / wpp / no-pmode / no-pme / no-psnr / no-ssim / log-level=2 / input-csp=1 / input-res=1920x802 / interlace=0 / total-frames=0 / level-idc=0 / high-tier=1 / uhd-bd=0 / ref=4 / no-allow-non-conformance / repeat-headers / annexb / no-aud / no-eob / no-eos / no-hrd / info / hash=0 / temporal-layers=0 / open-gop / min-keyint=25 / keyint=250 / gop-lookahead=0 / bframes=5 / b-adapt=0 / b-pyramid / bframe-bias=0 / rc-lookahead=15 / lookahead-slices=5 / scenecut=40 / no-hist-scenecut / radl=0 / no-splice / no-intra-refresh / ctu=64 / min-cu-size=8 / no-rect / no-amp / max-tu-size=32 / tu-inter-depth=1 / tu-intra-depth=1 / limit-tu=0 / rdoq-level=0 / dynamic-rd=0.00 / no-ssim-rd / signhide / no-tskip / nr-intra=0 / nr-inter=0 / no-constrained-intra / strong-intra-smoothing / max-merge=2 / limit-refs=3 / no-limit-modes / me=1 / subme=2 / merange=57 / temporal-mvp / no-frame-dup / no-hme / weightp / no-weightb / no-analyze-src-pics / deblock=0:0 / sao / no-sao-non-deblock / rd=2 / selective-sao=4 / no-early-skip / rskip / fast-intra / no-tskip-fast / no-cu-lossless / no-b-intra / no-splitrd-skip / rdpenalty=0 / psy-rd=2.00 / psy-rdoq=0.00 / no-rd-refine / no-lossless / cbqpoffs=0 / crqpoffs=0 / rc=abr / bitrate=4837 / qcomp=0.60 / qpstep=4 / stats-write=0 / stats-read=0 / ipratio=1.40 / pbratio=1.30 / aq-mode=2 / aq-strength=1.00 / cutree / zone-count=0 / no-strict-cbr / qg-size=32 / no-rc-grain / qpmax=69 / qpmin=0 / no-const-vbv / sar=0 / overscan=0 / videoformat=5 / range=0 / colorprim=9 / transfer=16 / colormatrix=9 / chromaloc=1 / chromaloc-top=1 / chromaloc-bottom=1 / display-window=0 / master-display=G(13250,34500)B(7500,3000)R(34000,16000)WP(15635,16450)L(10000000,1) / cll=649,181 / min-luma=0 / max-luma=1023 / log2-max-poc-lsb=8 / vui-timing-info / vui-hrd-info / slices=1 / no-opt-qp-pps / no-opt-ref-list-length-pps / no-multi-pass-opt-rps / scenecut-bias=0.05 / no-opt-cu-delta-qp / no-aq-motion / hdr10 / hdr10-opt / no-dhdr10-opt / no-idr-recovery-sei / analysis-reuse-level=0 / analysis-save-reuse-level=0 / analysis-load-reuse-level=0 / scale-factor=0 / refine-intra=0 / refine-inter=0 / refine-mv=1 / refine-ctu-distortion=0 / no-limit-sao / ctu-info=0 / no-lowpass-dct / refine-analysis-type=0 / copy-pic=1 / max-ausize-factor=1.0 / no-dynamic-refine / no-single-sei / no-hevc-aq / no-svt / no-field / qp-adaptation-range=1.00 / scenecut-aware-qp=0conformance-window-offsets / right=0 / bottom=0 / decoder-max-rate=0 / no-vbv-live-multi-pass / no-mcstf / no-sbrc
Язык : English
Default : Да
Forced : Нет
Цветовой диапазон : Limited
Основные цвета : BT.2020
Характеристики трансфера : PQ
Коэффициенты матрицы : BT.2020 non-constant
Mastering display color primaries : Display P3
Mastering display luminance : min: 0.0001 cd/m2, max: 1000 cd/m2
Maximum Content Light Level : 649 cd/m2
Maximum Frame-Average Light Level : 181 cd/m2
Аудио #1
Идентификатор : 2
Формат : AC-3
Формат/Информация : Audio Coding 3
Коммерческое название : Dolby Digital
Идентификатор кодека : A_AC3
Продолжительность : 1 ч. 55 м.
Вид битрейта : Постоянный
Битрейт : 192 Кбит/сек
Каналы : 2 канала
Channel layout : L R
Частота : 48,0 КГц
Частота кадров : 31,250 кадров/сек (1536 SPF)
Метод сжатия : С потерями
Размер потока : 158 Мбайт (4%)
Заголовок : Дубляж (Soundmasters)
Язык : Russian
Service kind : Complete Main
Default : Да
Forced : Нет
Аудио #2
Идентификатор : 3
Формат : AC-3
Формат/Информация : Audio Coding 3
Коммерческое название : Dolby Digital
Идентификатор кодека : A_AC3
Продолжительность : 1 ч. 55 м.
Вид битрейта : Постоянный
Битрейт : 192 Кбит/сек
Каналы : 2 канала
Channel layout : L R
Частота : 48,0 КГц
Частота кадров : 31,250 кадров/сек (1536 SPF)
Метод сжатия : С потерями
Размер потока : 158 Мбайт (4%)
Заголовок : Дубляж (MovieDalen)
Язык : Russian
Service kind : Complete Main
Default : Нет
Forced : Нет
Текст #1
Идентификатор : 4
Формат : ASS
Идентификатор кодека : S_TEXT/ASS
Идентификатор кодека/Информация : Advanced Sub Station Alpha
Продолжительность : 1 ч. 21 м.
Битрейт : 2 бит/сек
Частота кадров : 0,003 кадр/сек
Count of elements : 17
Метод сжатия : Без потерь
Размер потока : 1,48 Кбайт (0%)
Заголовок : Forced
Язык : Russian
Default : Да
Forced : Нет
Текст #2
Идентификатор : 5
Формат : UTF-8
Идентификатор кодека : S_TEXT/UTF8
Идентификатор кодека/Информация : UTF-8 Plain Text
Продолжительность : 1 ч. 46 м.
Битрейт : 95 бит/сек
Частота кадров : 0,219 кадр/сек
Count of elements : 1403
Размер потока : 74,9 Кбайт (0%)
Заголовок : Full
Язык : Russian
Default : Нет
Forced : Нет
Текст #3
Идентификатор : 6
Формат : UTF-8
Идентификатор кодека : S_TEXT/UTF8
Идентификатор кодека/Информация : UTF-8 Plain Text
Продолжительность : 1 ч. 47 м.
Битрейт : 55 бит/сек
Частота кадров : 0,236 кадр/сек
Count of elements : 1523
Размер потока : 43,7 Кбайт (0%)
Заголовок : Full
Язык : English (US)
Default : Нет
Forced : Нет
Текст #4
Идентификатор : 7
Формат : UTF-8
Идентификатор кодека : S_TEXT/UTF8
Идентификатор кодека/Информация : UTF-8 Plain Text
Продолжительность : 1 ч. 54 м.
Битрейт : 66 бит/сек
Частота кадров : 0,296 кадр/сек
Count of elements : 2030
Размер потока : 55,5 Кбайт (0%)
Заголовок : SDH
Язык : English (US)
Default : Нет
Forced : Нет
-

[Цитировать]



Показать сообщения:    

Текущее время: 25-Май 11:49

Часовой пояс: UTC + 6


Вы не можете начинать темы
Вы не можете отвечать на сообщения
Вы не можете редактировать свои сообщения
Вы не можете удалять свои сообщения
Вы не можете голосовать в опросах
Вы не можете прикреплять файлы к сообщениям
Вы не можете скачивать файлы

!ВНИМАНИЕ!
Сайт не предоставляет электронные версии произведений, а занимается лишь коллекционированием и каталогизацией ссылок, присылаемых и публикуемых на форуме нашими читателями. Если вы являетесь правообладателем какого-либо представленного материала и не желаете, чтобы ссылка на него находилась в нашем каталоге, свяжитесь с нами, и мы незамедлительно удалим ее. Файлы для обмена на трекере предоставлены пользователями сайта, и администрация не несет ответственности за их содержание. Просьба не заливать файлы, защищенные авторскими правами, а также файлы нелегального содержания!