***Уважаемые пользователи и гости !!! Сайт переехал на новый домен Torrents-club.info. Просьба изменить ваши закладки! ***
 
[ Сегодня идет свободное скачивание без начисления Download ]


Статистика раздачи
Нет
 
   
 
 
 
 
- Информация
Оригинальное название: Донбасс Реалии
Год выпуска: 2024
Жанр: Документальный, аналитика
Автор: Ярослав Кречко
Ведущий: Ярослав Кречко
Камера: Павел Холодов, Евгений Головин
Монтаж: Александр Руденский, Андрей Фартушок
Шеф-редактор: Елена Механик
Описание: Дальнобойное оружие ВСУ
уничтожает аэродромы и ПВО России,
(которым "аналогов нет").
Есть Реклама - логотип ТВ канала
Выпущено: Украина, Спутниковый телеканал
"Настоящее время" (Current Time TV)
Продолжительность: 00:20:47
Язык: Русский, Украинский
Субтитры: Русские
Файл
Формат: mp4
Качество: WEBRip 1080p
Видео: MPEG-4 AVC, 2488 Кбит/с, 1920x1080
Аудио: AAC, 2 ch, 128 Кбит/с

Радио Свобода

Радио Свобода видит свою миссию в продвижении демократических ценностей и институтов путем обращения к аудитории тех стран, в которых свобода печати ограничена властью или пока еще не стала нормой общественной жизни. Журналисты Радио Свобода предоставляют своей аудитории то, что ей недоступно из местных средств информации: новости без цензуры, ответственный обмен мнениями, открытое обсуждение проблем.

Тема выпуска

Украина начала бить на более дальние расстояния:
украинская армия теперь может наносить удары по новым военным целям России.
Куда долетают ATACMS? Какие российские аэродромы уже под огнем?
С-400, РЛС, ПВО, самолёты: где будут следующие атаки и что еще под прицелом ВСУ?
Какие потери несут российские военные в Украине?
Россия отвечает КАБами.

MediaInfo

Общее
Полное имя : D:\donbass_realii_26_05_2024.mp4
Формат : MPEG-4
Профиль формата : Base Media
Идентификатор кодека : isom (isom/iso2/avc1/mp41)
Размер файла : 390 Мбайт
Продолжительность : 20 м. 47 с.
Общий поток : 2 622 Кбит/сек
Частота кадров : 25,000 кадров/сек
Название фильма : Дальнобойное оружие ВСУ уничтожает аэродромы и ПВО России | Донбасс Реалии
Программа кодирования : Lavf59.16.100
Обложка : Yes
Примечание : https://www.filmgrad.site
Видео
Идентификатор : 1
Формат : AVC
Формат/Информация : Advanced Video Codec
Профиль формата : High@L4
Настройки формата : CABAC / 3 Ref Frames
Параметр CABAC формата : Да
Параметр RefFrames формата : 3 кадра
Идентификатор кодека : avc1
Идентификатор кодека/Информация : Advanced Video Coding
Продолжительность : 20 м. 47 с.
Битрейт : 2 488 Кбит/сек
Ширина : 1 920 пикселей
Высота : 1 080 пикселей
Соотношение сторон : 16:9
Режим частоты кадров : Постоянный
Частота кадров : 25,000 кадров/сек
Цветовое пространство : YUV
Субдискретизация насыщенности : 4:2:0
Битовая глубина : 8 бит
Тип развёртки : Прогрессивная
Бит/(Пиксели*Кадры) : 0.048
Размер потока : 370 Мбайт (95%)
Цветовой диапазон : Limited
Основные цвета : BT.709
Характеристики трансфера : BT.709
Коэффициенты матрицы : BT.709
Codec configuration box : avcC
Аудио
Идентификатор : 2
Формат : AAC LC
Формат/Информация : Advanced Audio Codec Low Complexity
Идентификатор кодека : mp4a-40-2
Продолжительность : 20 м. 47 с.
Вид битрейта : Постоянный
Битрейт : 128 Кбит/сек
Каналы : 2 канала
Channel layout : L R
Частота : 44,1 КГц
Частота кадров : 43,066 кадра/сек (1024 SPF)
Метод сжатия : С потерями
Размер потока : 19,0 Мбайт (5%)
Заголовок : ISO Media file produced by Google Inc.
Язык : English
Default : Да
Alternate group : 1

[Цитировать]



Показать сообщения:    

Текущее время: 13-Июн 09:45

Часовой пояс: UTC + 6


Вы не можете начинать темы
Вы не можете отвечать на сообщения
Вы не можете редактировать свои сообщения
Вы не можете удалять свои сообщения
Вы не можете голосовать в опросах
Вы не можете прикреплять файлы к сообщениям
Вы не можете скачивать файлы

!ВНИМАНИЕ!
Сайт не предоставляет электронные версии произведений, а занимается лишь коллекционированием и каталогизацией ссылок, присылаемых и публикуемых на форуме нашими читателями. Если вы являетесь правообладателем какого-либо представленного материала и не желаете, чтобы ссылка на него находилась в нашем каталоге, свяжитесь с нами, и мы незамедлительно удалим ее. Файлы для обмена на трекере предоставлены пользователями сайта, и администрация не несет ответственности за их содержание. Просьба не заливать файлы, защищенные авторскими правами, а также файлы нелегального содержания!