***Уважаемые пользователи и гости !!! Сайт переехал на новый домен Torrents-club.info. Просьба изменить ваши закладки! ***
 
[ Сегодня идет свободное скачивание без начисления Download ]


Статистика раздачи
Нет
 
   
 
 
 
 
Выкуп – миллиард / Take Down (2016) HDRip - Производство: Великобритания
Жанр: Триллер
Режиссер: Джим Гиллеспи
Продюсер: Сара Блэк, Эд Эльберт, Алекс Браун
Актеры: Фиби Тонкин, Эд Вествик, Доминик Шервуд, Джереми Самптер, Себастьян Кох, Трэйси Айфичор, Эллиот Найт, Марк Боннар, Анна-Луиза Плауман, Анна Уилсон-Джонс.
Описание:
Группа безрассудных отпрысков миллиардеров проводит время в специальном лагере, расположенном на отдалённом острове. Их родители надеются, что за время пребывания здесь герои научатся нести ответственность за свою жизнь. На территорию острова прибывает команда вооружённых злоумышленников, которые рассчитывают взять потомков мировой элиты в заложники, а затем получить за них миллиард долларов в качестве выкупа. Чтобы попытаться противостоять расчётливым похитителям, молодые люди должны использовать основные навыки выживания в дикой природе.

Дата мировой премьеры: 5 мая 2016
Релиз от: KOSHARA
Продолжительность: 01:47:23
Качество видео: HDRip СЭМПЛ
Перевод: Многоголосый закадровый, профессиональный (Синема УС)
Реклама: Присутствуют голосовые и текстовые вставки рекламы. Начальный рекламный ролик вырезан.
Видео: Xvid, 720x304, 24,000 fps, ~1356 Kbps
Аудио: AC3, 2 ch, 448 Kbps, CBR

Информация по видеофайлу

Общее
Полное имя : D:\Фильмы\Мои раздачи\Выкуп - миллиард\Take.Down.2016.P.HDRip.1400MB.avi
Формат : AVI
Формат/Информация : Audio Video Interleave
Размер файла : 1,36 Гбайт
Продолжительность : 1 ч. 47 м.
Общий поток : 1813 Кбит/сек
Программа кодирования : VirtualDubMod 1.5.10.2 (build 2540/release)
Библиотека кодирования : VirtualDub build 35390/release
Видео
Идентификатор : 0
Формат : MPEG-4 Visual
Профиль формата : Advanced Simple@L5
Параметр BVOP формата : 2
Параметр QPel формата : Нет
Параметр GMC формата : Без точки перехода
Параметр матрицы формата : Выборочная
Идентификатор кодека : XVID
Идентификатор кодека/Подсказка : XviD
Продолжительность : 1 ч. 47 м.
Битрейт : 1356 Кбит/сек
Ширина : 720 пикселей
Высота : 304 пикселя
Соотношение сторон : 2,35:1
Частота кадров : 24,000 кадра/сек
Цветовое пространство : YUV
Субдискретизация насыщенности : 4:2:0
Битовая глубина : 8 бит
Тип развёртки : Прогрессивная
Метод сжатия : С потерями
Бит/(Пиксели*Кадры) : 0.258
Размер потока : 1,02 Гбайт (75%)
Библиотека кодирования : XviD 1.2.1 (UTC 2008-12-04)
Аудио
Идентификатор : 1
Формат : AC-3
Формат/Информация : Audio Coding 3
Расширение режима : CM (complete main)
Параметр Endianness формата : Big
Идентификатор кодека : 2000
Продолжительность : 1 ч. 47 м.
Вид битрейта : Постоянный
Битрейт : 448 Кбит/сек
Каналы : 2 канала
Расположение каналов : Front: L R
Частота : 48,0 КГц
Битовая глубина : 16 бит
Метод сжатия : С потерями
Задержка видео : 1 мс.
Размер потока : 344 Мбайт (25%)
Выравнивание : Разделение по промежуткам
Продолжительность промежутка : 42 мс. (1,00 видеокадр)
Время предзагрузки промежутка : 500 мс.
Скриншоты:

[Цитировать]



Показать сообщения:    

Текущее время: 26-Сен 18:23

Часовой пояс: UTC + 6


Вы не можете начинать темы
Вы не можете отвечать на сообщения
Вы не можете редактировать свои сообщения
Вы не можете удалять свои сообщения
Вы не можете голосовать в опросах
Вы не можете прикреплять файлы к сообщениям
Вы не можете скачивать файлы

!ВНИМАНИЕ!
Сайт не предоставляет электронные версии произведений, а занимается лишь коллекционированием и каталогизацией ссылок, присылаемых и публикуемых на форуме нашими читателями. Если вы являетесь правообладателем какого-либо представленного материала и не желаете, чтобы ссылка на него находилась в нашем каталоге, свяжитесь с нами, и мы незамедлительно удалим ее. Файлы для обмена на трекере предоставлены пользователями сайта, и администрация не несет ответственности за их содержание. Просьба не заливать файлы, защищенные авторскими правами, а также файлы нелегального содержания!