***Уважаемые пользователи и гости !!! Сайт переехал на новый домен Torrents-club.info. Просьба изменить ваши закладки! ***
 
[ Сегодня идет свободное скачивание без начисления Download ]


Статистика раздачи
Нет
 
   
 
 
 
 
О, где же ты, брат? / O Brother, Where Art Thou?
Информация о фильме
Название: О, где же ты, брат?
Оригинальное название: O Brother, Where Art Thou?
Год выхода: 2000
Жанр: Комедия, приключения, криминал
Режиссер: Джоэл Коэн, Этан Коэн
В ролях: Джордж Клуни, Джон Туртурро, Чарльз Дёрнинг, Холли Хантер, Джон Гудмен, Стивен Рут, Майкл Бадалуччо, Брайан Редди, Дэниэл Фон Барген, Фрэнк Коллисон, Джей Р. Хорн, Крис Томас Кинг, Тим Блейк Нельсон, Уэйн Дюволл
О фильме:
У мошенника Эверетта МакГилла на воле срочное дело, но как убежать из тюрьмы, если ты скован одной цепью с двумя заключенными? МакГилл рассказывает своим сокамерникам историю о припрятанном миллионе долларов и о том, что скоро все это богатство окажется под водой. Он обещает разделить награбленное на троих, и его тюремные братья соглашаются отправиться на спасение денежек. Но о том, ради чего на самом деле затеяна вся эта одиссея, знает только Эверетт.

Страна: США, Франция, Великобритания
Студия: StudioCanal Working Title Films
Продолжительность: 01:47:09
Перевод: Профессиональный (полное дублирование)
Файл
Кодек: XviD
Качество: HDRip (источник BDRip 1080p)
Видео: 688x288 (2.39:1), 23.976 fps, XviD build 73 ~838 kbps avg, 0.18 bit/pixel
Звук: 48 kHz, MPEG Layer 3, 2 ch, ~128.00 kbps avg
Субтитры: Отсутствуют
Семпл

MI

General
Complete name : D:Изготовление рипаO gdeze tiy brat.(2000).HDRip by shkiper.avi
Format : AVI
Format/Info : Audio Video Interleave
File size : 748 MiB
Duration : 1h 47mn
Overall bit rate : 976 Kbps
Writing application : VirtualDubMod 1.5.10.3 | www.virtualdub-fr.org || (build 2550/release)
Writing library : VirtualDubMod build 2550/release
Video
ID : 0
Format : MPEG-4 Visual
Format profile : Advanced Simple@L5
Format settings, BVOP : 1
Format settings, QPel : No
Format settings, GMC : No warppoints
Format settings, Matrix : Custom
Codec ID : XVID
Codec ID/Hint : XviD
Duration : 1h 47mn
Bit rate : 839 Kbps
Width : 688 pixels
Height : 288 pixels
Display aspect ratio : 2.40:1
Frame rate : 23.976 fps
Color space : YUV
Chroma subsampling : 4:2:0
Bit depth : 8 bits
Scan type : Progressive
Compression mode : Lossy
Bits/(Pixel*Frame) : 0.177
Stream size : 643 MiB (86%)
Writing library : XviD 73
Audio
ID : 1
Format : MPEG Audio
Format version : Version 1
Format profile : Layer 3
Codec ID : 55
Codec ID/Hint : MP3
Duration : 1h 47mn
Bit rate mode : Constant
Bit rate : 128 Kbps
Channel count : 2 channels
Sampling rate : 48.0 KHz
Compression mode : Lossy
Stream size : 98.1 MiB (13%)
Alignment : Aligned on interleaves
Interleave, duration : 42 ms (1.00 video frame)
Interleave, preload duration : 504 ms
Writing library : LAME3.99r
Encoding settings : -m s -V 4 -q 2 -lowpass 17 -b 128

Скриншоты

[Цитировать]



Показать сообщения:    

Текущее время: 28-Сен 08:59

Часовой пояс: UTC + 6


Вы не можете начинать темы
Вы не можете отвечать на сообщения
Вы не можете редактировать свои сообщения
Вы не можете удалять свои сообщения
Вы не можете голосовать в опросах
Вы не можете прикреплять файлы к сообщениям
Вы не можете скачивать файлы

!ВНИМАНИЕ!
Сайт не предоставляет электронные версии произведений, а занимается лишь коллекционированием и каталогизацией ссылок, присылаемых и публикуемых на форуме нашими читателями. Если вы являетесь правообладателем какого-либо представленного материала и не желаете, чтобы ссылка на него находилась в нашем каталоге, свяжитесь с нами, и мы незамедлительно удалим ее. Файлы для обмена на трекере предоставлены пользователями сайта, и администрация не несет ответственности за их содержание. Просьба не заливать файлы, защищенные авторскими правами, а также файлы нелегального содержания!