***Уважаемые пользователи и гости !!! Сайт переехал на новый домен Torrents-club.info. Просьба изменить ваши закладки! ***
 
[ Сегодня идет свободное скачивание без начисления Download ]


Статистика раздачи
Нет
 
   
 
 
 
 
Первое воскресеньеFirst Sunday«Сохраняй свою веру. Всё остальное можешь украсть»- Страна: США
Жанр: драма, комедия, криминал
Год выпуска: 2008
Продолжительность: 01:37:59
Перевод: Профессиональный (многоголосый, закадровый)
Субтитры: английские-Режиссер: Дэвид Е. Талберт / David E. Talbert-В ролях: Айс Кьюб (Durell), Кэт Уильямс (Rickey), Трэйси Морган (LeeJohn), Лоретта Дивайн (Sister Doris), Майкл Бич (Deacon), Кит Дэвид (Judge B. Bennet Galloway), Реджина Холл (Omunique), Малинда Уильямс (Tianna), Чи МакБрайд (Pastor Arthur Mitchell), Клифтон Пауэлл (Officer Eddie King), Николас Туртурро (Officer D'Agostino), Оливия Коул (Momma T)-Описание: Приговоренный к 5000 часам общественных работ незадачливый жулик Дюрелл узнает, что вдобавок ко всему может лишиться собственного сына, которого бывшая подруга решила увезти в другой штат, если он не расплатится со старым долгом - 17 тысяч долларов.-
MPAA: PG-13 - Детям до 13 лет просмотр не желателен-Семпл-Качество: BDRip
Контейнер: MKV
Видео: AVC, 1280x696 (1.85:1), 6280 kbps, 23,976 fps, 0,294 bpp
Аудио №1: русский / AC3 / 5.1 / 48 kHz / 448 kbps
Аудио №2: английский / AC3 / 5.1 / 48 kHz / 640 kbps
Навигация по главам: есть-

Media Info

********************************************************************
x264 [info]: frame I:1454 Avg QP:16.47 size:145697
x264 [info]: frame P:28218 Avg QP:17.72 size: 66208
x264 [info]: frame B:111304 Avg QP:19.92 size: 23757
********************************************************************
Формат : Matroska
Версия формата : Version 2
Размер файла : 5,15 Гбайт
Продолжительность : 1 ч. 37 м.
Общий поток : 7518 Кбит/сек
Название фильма : = Первое воскресенье / First Sunday (2008) BDRip 720p by SC Kosmos =
Дата кодирования : UTC 2016-10-30 15:03:41
Программа кодирования : mkvmerge v5.8.0 ('No Sleep / Pillow') built on Sep 2 2012 15:37:04
Библиотека кодирования : libebml v1.2.3 + libmatroska v1.3.0
Attachment : Yes
Видео
Идентификатор : 1
Формат : AVC
Формат/Информация : Advanced Video Codec
Профиль формата : High@L4.1
Параметр CABAC формата : Да
Параметр ReFrames формата : 9 кадров
Идентификатор кодека : V_MPEG4/ISO/AVC
Продолжительность : 1 ч. 37 м.
Битрейт : 6281 Кбит/сек
Ширина : 1280 пикселей
Высота : 696 пикселей
Соотношение сторон : 1,85:1
Режим частоты кадров : Постоянный
Частота кадров : 23,976 кадра/сек
Цветовое пространство : YUV
Субдискретизация насыщенности : 4:2:0
Битовая глубина : 8 бит
Тип развёртки : Прогрессивная
Бит/(Пиксели*Кадры) : 0.294
Размер потока : 4,30 Гбайт (84%)
Заголовок : Первое воскресенье / First Sunday (2008) BDRip 720p by SC Kosmos
Библиотека кодирования : x264 core 146 r2538 121396c
Настройки программы : cabac=1 / ref=9 / deblock=1:-3:-3 / analyse=0x3:0x113 / me=umh / subme=11 / psy=1 / psy_rd=1.00:0.10 / mixed_ref=1 / me_range=32 / chroma_me=1 / trellis=2 / 8x8dct=1 / cqm=0 / deadzone=21,11 / fast_pskip=0 / chroma_qp_offset=-3 / threads=12 / lookahead_threads=3 / sliced_threads=0 / nr=0 / decimate=1 / interlaced=0 / bluray_compat=0 / constrained_intra=0 / bframes=12 / b_pyramid=2 / b_adapt=2 / b_bias=0 / direct=3 / weightb=1 / open_gop=0 / weightp=2 / keyint=240 / keyint_min=23 / scenecut=40 / intra_refresh=0 / rc_lookahead=50 / rc=crf / mbtree=0 / crf=18.0 / qcomp=0.60 / qpmin=0 / qpmax=69 / qpstep=4 / vbv_maxrate=62500 / vbv_bufsize=78125 / crf_max=0.0 / nal_hrd=none / filler=0 / ip_ratio=1.40 / pb_ratio=1.30 / aq=1:0.80
Язык : English
Default : Да
Forced : Нет
Аудио #1
Идентификатор : 2
Формат : AC-3
Формат/Информация : Audio Coding 3
Расширение режима : CM (complete main)
Параметр Endianness формата : Big
Идентификатор кодека : A_AC3
Продолжительность : 1 ч. 37 м.
Вид битрейта : Постоянный
Битрейт : 448 Кбит/сек
Каналы : 6 каналов
Расположение каналов : Front: L C R, Side: L R, LFE
Частота : 48,0 КГц
Битовая глубина : 16 бит
Метод сжатия : С потерями
Размер потока : 314 Мбайт (6%)
Заголовок : MVO
Язык : Russian
Default : Да
Forced : Нет
Аудио #2
Идентификатор : 3
Формат : AC-3
Формат/Информация : Audio Coding 3
Расширение режима : CM (complete main)
Параметр Endianness формата : Big
Идентификатор кодека : A_AC3
Продолжительность : 1 ч. 37 м.
Вид битрейта : Постоянный
Битрейт : 640 Кбит/сек
Каналы : 6 каналов
Расположение каналов : Front: L C R, Side: L R, LFE
Частота : 48,0 КГц
Битовая глубина : 16 бит
Метод сжатия : С потерями
Размер потока : 449 Мбайт (9%)
Язык : English
Default : Нет
Forced : Нет
Текст
Идентификатор : 4
Формат : UTF-8
Идентификатор кодека : S_TEXT/UTF8
Идентификатор кодека/Информация : UTF-8 Plain Text
Язык : English
Default : Нет
Forced : Нет
Меню
00:00:00.000 : en:00:00:00.000
00:05:25.367 : en:00:05:25.367
00:11:49.667 : en:00:11:49.667
00:20:36.694 : en:00:20:36.694
00:25:02.084 : en:00:25:02.084
00:30:12.811 : en:00:30:12.811
00:36:11.252 : en:00:36:11.252
00:42:36.095 : en:00:42:36.095
00:47:37.646 : en:00:47:37.646
00:55:17.064 : en:00:55:17.064
00:59:25.437 : en:00:59:25.437
01:05:32.762 : en:01:05:32.762
01:12:04.153 : en:01:12:04.153
01:18:57.608 : en:01:18:57.608
01:22:20.602 : en:01:22:20.602
01:29:04.756 : en:01:29:04.756
-

Скриншоты


[Цитировать]



Показать сообщения:    

Текущее время: 23-Сен 11:43

Часовой пояс: UTC + 6


Вы не можете начинать темы
Вы не можете отвечать на сообщения
Вы не можете редактировать свои сообщения
Вы не можете удалять свои сообщения
Вы не можете голосовать в опросах
Вы не можете прикреплять файлы к сообщениям
Вы не можете скачивать файлы

!ВНИМАНИЕ!
Сайт не предоставляет электронные версии произведений, а занимается лишь коллекционированием и каталогизацией ссылок, присылаемых и публикуемых на форуме нашими читателями. Если вы являетесь правообладателем какого-либо представленного материала и не желаете, чтобы ссылка на него находилась в нашем каталоге, свяжитесь с нами, и мы незамедлительно удалим ее. Файлы для обмена на трекере предоставлены пользователями сайта, и администрация не несет ответственности за их содержание. Просьба не заливать файлы, защищенные авторскими правами, а также файлы нелегального содержания!