***Уважаемые пользователи и гости !!! Сайт переехал на новый домен Torrents-club.info. Просьба изменить ваши закладки! ***
 
[ Сегодня идет свободное скачивание без начисления Download ]


Статистика раздачи
Нет
 
   
 
 
 
 
Дуэлянт (2016) Информация о фильме
Год выпуска: 2016
Выпущено: Россия / Нон-стоп Продакшн
Жанр: драма
Продолжительность: 01:44:43
Перевод: Не требуется
Cубтитры: нет
Навигация по главам: Есть (16 глав)
Режиссёр:
Алексей Мизгирёв
В ролях:
Пётр Фёдоров (Яковлев / Колычев), Владимир Машков (граф Беклемишев), Юлия Хлынина (Марфа Тучкова), Франциска Петри (великая княгиня Александра Иосифовна), Мартин Вуттке (великая княгиня Александра Иосифовна), Сергей Гармаш (однорукий дворянин), Павел Табаков (князь Тучков), Юрий Колокольников (Басаргин, кредитор графа), Александр Яценко (Яковлев младший), Юрий Кузнецов (камердинер), Дмитрий Куличков (Чичагов), Павел Кузьмин (капитан Липранди)
Описание:
В центре сюжета профессиональный дуэлянт, который зарабатывает на жизнь, участвуя в поединках за других людей.
Файл
Качество: WEB-DLRip-AVC [WEB-DL | 1080p | Кинозал]
Формат: MKV
Видео кодек: x264
Аудио кодек: AC3
Видео: 944x400 (2,35:1), 25,000 fps, x264 ~1800 kbps avg, 0.191 bit/pixel
Аудио: 48 kHz, AC3 Dolby Digital, 2/0 (L,R) ch, ~192 kbps avg - iTunes Russia

Скриншоты

MediaInfo

Общее
Полное имя : D:Duelyant_2016_WEB-DLRip-AVC_by_Dalemake.mkv
Формат : Matroska
Версия формата : Version 4 / Version 2
Размер файла : 1,46 Гбайт
Продолжительность : 1 ч. 44 м.
Общий поток : 1993 Кбит/сек
Название фильма : [Duelyant_2016_All Films _by Dalemake]
Дата кодирования : UTC 2016-11-01 04:24:42
Программа кодирования : mkvmerge v7.8.0 ('River Man') 32bit built on Apr 3 2015 12:11:22
Библиотека кодирования : libebml v1.3.1 + libmatroska v1.4.2
DURATION : 01:44:43.616000000
NUMBER_OF_FRAMES : 196363
NUMBER_OF_BYTES : 150806784
_STATISTICS_WRITING_APP : mkvmerge v7.8.0 ('River Man') 32bit built on Apr 3 2015 12:11:22
_STATISTICS_WRITING_DATE_UTC : 2016-11-01 04:24:42
_STATISTICS_TAGS : BPS DURATION NUMBER_OF_FRAMES NUMBER_OF_BYTES
Видео
Идентификатор : 1
Формат : AVC
Формат/Информация : Advanced Video Codec
Профиль формата : High@L4.1
Параметр CABAC формата : Да
Параметр ReFrames формата : 11 кадров
Идентификатор кодека : V_MPEG4/ISO/AVC
Продолжительность : 1 ч. 44 м.
Битрейт : 1800 Кбит/сек
Ширина : 944 пикселя
Высота : 400 пикселей
Соотношение сторон : 2,35:1
Режим частоты кадров : Постоянный
Частота кадров : 25,000 кадров/сек
Цветовое пространство : YUV
Субдискретизация насыщенности : 4:2:0
Битовая глубина : 8 бит
Тип развёртки : Прогрессивная
Бит/(Пиксели*Кадры) : 0.191
Размер потока : 1,29 Гбайт (88%)
Заголовок : [Duelyant_2016_All Films_by Dalemake]
Библиотека кодирования : x264 core 146 r2538 121396c
Настройки программы : cabac=1 / ref=11 / deblock=1:-2:-2 / analyse=0x3:0x113 / me=umh / subme=11 / psy=1 / psy_rd=1.00:0.00 / mixed_ref=1 / me_range=48 / chroma_me=1 / trellis=2 / 8x8dct=1 / cqm=0 / deadzone=21,11 / fast_pskip=0 / chroma_qp_offset=-2 / threads=6 / lookahead_threads=1 / sliced_threads=0 / nr=0 / decimate=0 / interlaced=0 / bluray_compat=0 / constrained_intra=0 / bframes=10 / b_pyramid=2 / b_adapt=2 / b_bias=0 / direct=3 / weightb=1 / open_gop=0 / weightp=2 / keyint=240 / keyint_min=24 / scenecut=40 / intra_refresh=0 / rc_lookahead=60 / rc=2pass / mbtree=0 / bitrate=1800 / ratetol=1.0 / qcomp=0.60 / qpmin=0 / qpmax=69 / qpstep=4 / cplxblur=20.0 / qblur=0.5 / vbv_maxrate=50000 / vbv_bufsize=62500 / nal_hrd=none / filler=0 / ip_ratio=1.30 / pb_ratio=1.25 / aq=1:1.00
Default : Да
Forced : Нет
Аудио
Идентификатор : 2
Формат : AC-3
Формат/Информация : Audio Coding 3
Расширение режима : CM (complete main)
Параметр Endianness формата : Big
Идентификатор кодека : A_AC3
Продолжительность : 1 ч. 44 м.
Вид битрейта : Постоянный
Битрейт : 192 Кбит/сек
Каналы : 2 канала
Расположение каналов : Front: L R
Частота : 48,0 КГц
Метод сжатия : С потерями
Размер потока : 144 Мбайт (10%)
Заголовок : iTunes Russia
Язык : Russian
Default : Да
Forced : Да
Меню
00:00:00.000 : en:1
00:06:46.560 : en:2
00:14:28.240 : en:3
00:21:11.040 : en:4
00:26:11.000 : en:5
00:30:12.000 : en:6
00:36:18.960 : en:7
00:43:45.240 : en:8
00:49:11.720 : en:9
00:56:21.320 : en:10
01:02:33.280 : en:11
01:08:04.240 : en:12
01:13:35.240 : en:13
01:20:05.440 : en:14
01:27:22.320 : en:15
01:34:01.040 : en:16

[Цитировать]



Показать сообщения:    

Текущее время: 27-Сен 21:39

Часовой пояс: UTC + 6


Вы не можете начинать темы
Вы не можете отвечать на сообщения
Вы не можете редактировать свои сообщения
Вы не можете удалять свои сообщения
Вы не можете голосовать в опросах
Вы не можете прикреплять файлы к сообщениям
Вы не можете скачивать файлы

!ВНИМАНИЕ!
Сайт не предоставляет электронные версии произведений, а занимается лишь коллекционированием и каталогизацией ссылок, присылаемых и публикуемых на форуме нашими читателями. Если вы являетесь правообладателем какого-либо представленного материала и не желаете, чтобы ссылка на него находилась в нашем каталоге, свяжитесь с нами, и мы незамедлительно удалим ее. Файлы для обмена на трекере предоставлены пользователями сайта, и администрация не несет ответственности за их содержание. Просьба не заливать файлы, защищенные авторскими правами, а также файлы нелегального содержания!