***Уважаемые пользователи и гости !!! Сайт переехал на новый домен Torrents-club.info. Просьба изменить ваши закладки! ***
 
[ Сегодня идет свободное скачивание без начисления Download ]


Статистика раздачи
Нет
 
   
 
 
 
 
187 / One Eight Seven
Информация о фильме
Русское название: 187
Оригинальное название: One Eight Seven
Год выхода: 1997
Жанр: триллер, драма
Режиссер: Кевин Рейнольдс
Выпущено: США
Продолжительность: 01:59:00
Перевод: Профессиональный (двухголосый закадровый), Авторский (одноголосый закадровый)
В ролях: Сэмюэл Л. Джексон, Джон Хёрд, Келли Рауэн, Тони Плана, Карина Арройяве, Лобо Себастиан, Джек Келер, Джона Руни, Клифтон Коллинз мл., Энтвон Тэннер, Деметриус Наварро, Доминик Хоффман, Метод Мэн, Гай Торри, Ричард Рили, Лобо Себастьян, Джонни Богрис, Лиза Дель Мундо
Сюжет фильма
Где обитают ублюдки? Учитель из Бруклина Тревор Гарфилд видит их каждый день в школе. Это готовые бандиты, от которых можно ждать чего угодно. Один из них из мести совершает попытку убить Гарфилда.
После этого Гарфилд переезжает в Лос-Анджелес и. .. оказывается в таком же дерьме. Когда его терпению пришел конец, он заставил подонков расплачиваться кровью за каждый совершенный проступок.

Файл
Качество: HDRip-AVC
Формат: MKV
Видео: 1024x576, ~2047 Кбит/сек, 23,976 кадр/сек, AVC, x264, High@L4.1, 16:9
Аудио 1: AC-3, 192 Кбит/сек, 2 канала(ов), 48,0 КГц - Двухголосый закадровый / Русский
Аудио 2: AC-3, 192 Кбит/сек, 2 канала(ов), 48,0 КГц - Одноголосый закадровый, А.Гаврилов / Русский
Аудио 3: AC-3, 192 Кбит/сек, 2 канала(ов), 48,0 КГц - Оригинал / Английский
Субтитры: Русские | Полные, Английские | Полные
Форсированные субтитры: Нет
Чаптеры (Главы): Есть

M/I

General
Unique ID : 119857517959477158916684618267714007989 (0x5A2BB7E1D745D4FD0400A58D9B6633B5)
Complete name : F:FILMSНОВЫЕ187.(1997).HDRip_AVC.[-=DoMiNo=-].mkv
Format : Matroska
Format version : Version 4 / Version 2
File size : 2.19 GiB
Duration : 1 h 59 min
Overall bit rate : 2 629 kb/s
Movie name : 187
Deion : Где обитают ублюдки? Учитель из Бруклина Тревор Гарфилд видит их каждый день в школе. Это готовые бандиты, от которых можно ждать чего угодно. Один из них из мести совершает попытку убить Гарфилда.После этого Гарфилд переезжает в Лос-Анджелес и. .. оказывается в таком же дерьме. Когда его терпению пришел конец, он заставил подонков расплачиваться кровью за каждый совершенный проступок.
Writing application : XviD4PSP 7.0.312 DAILY
Writing library : Lavf57.41.100 / Lavf57.41.100
Cover : Yes
Attachments : cover.jpg
ACTORS : Сэмюэл Л. Джексон, Клифтон Коллинз мл., Джон Хёрд, Тони Плана, Энтвон Тэннер, Ричард Рили, Келли Роуэн, Карина Арройяве, Лобо Себастьян, Джек Келер
COUNTRY : США
DATE : 1997
DIRECTOR : Кевин Рейнольдс
ENCODING_INFO : MATROSKA,WEBM > MKV / H264 > X264 VBR-2P 2047kbps Произвольный / AC3 > COPY / AC3 > COPY / AC3 > COPY
GENRE : триллер, драма
HD_VIDEO : 1
IMDB_RATING : 6.70
ITUNEXTC : mpaa|R|400|
MEDIA_TYPE : 9
ORIGINAL_TITLE : One Eight Seven
PRODUCER : Брюс Дэвей, Стефен МакЭвети, Дэвид Харфильд
RATING : 7.283
WRITER : Скотт Ягеманн
Video
ID : 1
Format : AVC
Format/Info : Advanced Video Codec
Format profile : High@L4.1
Format settings, CABAC : Yes
Format settings, ReFrames : 12 frames
Codec ID : V_MPEG4/ISO/AVC
Duration : 1 h 59 min
Bit rate : 2 047 kb/s
Width : 1 024 pixels
Height : 576 pixels
Display aspect ratio : 16:9
Frame rate mode : Constant
Frame rate : 23.976 (24000/1001) FPS
Color space : YUV
Chroma subsampling : 4:2:0
Bit depth : 8 bits
Scan type : Progressive
Bits/(Pixel*Frame) : 0.145
Stream size : 1.66 GiB (76%)
Title : One Eight Seven.(1997).BDRip
Writing library : x264 core 148 r2721M 72d53ab
Encoding settings : cabac=1 / ref=12 / deblock=1:-3:-3 / analyse=0x3:0x133 / me=umh / subme=11 / psy=1 / psy_rd=1.00:0.10 / mixed_ref=1 / me_range=32 / chroma_me=1 / trellis=2 / 8x8dct=1 / cqm=0 / deadzone=21,11 / fast_pskip=0 / chroma_qp_offset=-3 / threads=5 / lookahead_threads=1 / sliced_threads=0 / nr=0 / decimate=1 / interlaced=0 / bluray_compat=0 / constrained_intra=0 / bframes=11 / b_pyramid=2 / b_adapt=2 / b_bias=0 / direct=3 / weightb=1 / open_gop=0 / weightp=2 / keyint=230 / keyint_min=23 / scenecut=40 / intra_refresh=0 / rc_lookahead=60 / rc=2pass / mbtree=1 / bitrate=2047 / ratetol=1.0 / qcomp=0.60 / qpmin=0 / qpmax=69 / qpstep=4 / cplxblur=20.0 / qblur=0.5 / ip_ratio=1.40 / aq=1:1.00
Language : English
Default : Yes
Forced : No
DURATION : 01:59:00.133000000
Audio #1
ID : 2
Format : AC-3
Format/Info : Audio Coding 3
Mode extension : CM (complete main)
Format settings, Endianness : Big
Codec ID : A_AC3
Duration : 1 h 59 min
Bit rate mode : Constant
Bit rate : 192 kb/s
Channel(s) : 2 channels
Channel positions : Front: L R
Sampling rate : 48.0 kHz
Frame rate : 31.250 FPS (1536 spf)
Bit depth : 32 bits
Compression mode : Lossy
Stream size : 163 MiB (7%)
Title : DVO
Language : Russian
Default : Yes
Forced : No
DURATION : 01:59:00.160000000
Audio #2
ID : 3
Format : AC-3
Format/Info : Audio Coding 3
Mode extension : CM (complete main)
Format settings, Endianness : Big
Codec ID : A_AC3
Duration : 1 h 59 min
Bit rate mode : Constant
Bit rate : 192 kb/s
Channel(s) : 2 channels
Channel positions : Front: L R
Sampling rate : 48.0 kHz
Frame rate : 31.250 FPS (1536 spf)
Bit depth : 32 bits
Compression mode : Lossy
Stream size : 163 MiB (7%)
Title : AVO Gavrilov
Language : Russian
Default : No
Forced : No
DURATION : 01:59:00.192000000
Audio #3
ID : 4
Format : AC-3
Format/Info : Audio Coding 3
Mode extension : CM (complete main)
Format settings, Endianness : Big
Codec ID : A_AC3
Duration : 1 h 59 min
Bit rate mode : Constant
Bit rate : 192 kb/s
Channel(s) : 2 channels
Channel positions : Front: L R
Sampling rate : 48.0 kHz
Frame rate : 31.250 FPS (1536 spf)
Bit depth : 32 bits
Compression mode : Lossy
Stream size : 163 MiB (7%)
Title : Eng
Language : English
Default : No
Forced : No
DURATION : 01:59:00.192000000
Text #1
ID : 5
Format : UTF-8
Codec ID : S_TEXT/UTF8
Codec ID/Info : UTF-8 Plain Text
Title : Rus full
Language : Russian
Default : Yes
Forced : No
DURATION : 01:54:38.546000000
Text #2
ID : 6
Format : UTF-8
Codec ID : S_TEXT/UTF8
Codec ID/Info : UTF-8 Plain Text
Title : Eng full
Language : English
Default : No
Forced : No
DURATION : 01:54:01.476000000
Menu
00:00:00.000 : :Chapter 01
00:09:25.439 : :Chapter 02
00:20:04.203 : :Chapter 03
00:30:00.256 : :Chapter 04
00:39:20.733 : :Chapter 05
00:49:31.009 : :Chapter 06
01:00:21.701 : :Chapter 07
01:09:03.722 : :Chapter 08
01:22:40.330 : :Chapter 09
01:32:30.795 : :Chapter 10
01:39:32.800 : :Chapter 11
01:54:39.497 : :Chapter 12

Скриншоты

[Цитировать]



Показать сообщения:    

Текущее время: 02-Окт 02:21

Часовой пояс: UTC + 6


Вы не можете начинать темы
Вы не можете отвечать на сообщения
Вы не можете редактировать свои сообщения
Вы не можете удалять свои сообщения
Вы не можете голосовать в опросах
Вы не можете прикреплять файлы к сообщениям
Вы не можете скачивать файлы

!ВНИМАНИЕ!
Сайт не предоставляет электронные версии произведений, а занимается лишь коллекционированием и каталогизацией ссылок, присылаемых и публикуемых на форуме нашими читателями. Если вы являетесь правообладателем какого-либо представленного материала и не желаете, чтобы ссылка на него находилась в нашем каталоге, свяжитесь с нами, и мы незамедлительно удалим ее. Файлы для обмена на трекере предоставлены пользователями сайта, и администрация не несет ответственности за их содержание. Просьба не заливать файлы, защищенные авторскими правами, а также файлы нелегального содержания!