***Уважаемые пользователи и гости !!! Сайт переехал на новый домен Torrents-club.info. Просьба изменить ваши закладки! ***
 
[ Сегодня идет свободное скачивание без начисления Download ]


Статистика раздачи
Нет
 
   
 
 
 
Гений / Genius Информация о фильме:
Название: Гений
Оригинальное название: Genius
Производство: Великобритания, США
Дата мировой премьеры: 16 февраля 2016
Дата российской премьеры: 7 июля 2016
Жанр: драма, биография
Режиссер: Майкл Грандадж
В ролях: Николь Кидман, Джуд Лоу, Колин Фёрт, Гай Пирс, Лора Линни, Доминик Уэст, Ванесса Кирби, Марк Арнольд, Джейн Перри, Бернард Коллако
Описание:
История о непростой дружбе двух очень талантливых людей: писателя Томаса Вулфа и издателя Макса Перкинса, открывшего всему миру таких великих романистов, как Ф. Скотт Фицджеральд и Эрнест Хемингуэй.

Информация о файле:
Контейнер: MKV
Качество видео: BDRemux (1080p)
Перевод: Профессиональный (полное дублирование)
Видео: 1920x1080, 23.976 fps, MPEG-4 AVC, ~18872 kbps avg
Аудио: Русский DTS-HD MA 5.1 (48 kHz / 3186 kbps / 24-bit) (Дубляж)
Субтитры: отсутствуют
Продолжительность: 01:44:00
Сэмпл: Скачать

Mediainfo:

Общее
Уникальный идентификатор : 218434532308627288303424979725022363121 (0xA454F5EE37586F4AA94BFAB5F10F7DF1)
Полное имя : C:UsersAdminDesktop�0003.mkv
Формат : Matroska
Версия формата : Version 4 / Version 2
Размер файла : 16,0 Гбайт
Продолжительность : 1 ч. 44 м.
Режим общего битрейта : Переменный
Общий поток : 22,1 Мбит/сек
Дата кодирования : UTC 2016-10-28 23:17:27
Программа кодирования : mkvmerge v9.5.0 ('Quiet Fire') 64bit
Библиотека кодирования : libebml v1.3.4 + libmatroska v1.4.5
Видео
Идентификатор : 1
Формат : AVC
Формат/Информация : Advanced Video Codec
Профиль формата : High@L4
Параметр CABAC формата : Да
Параметр ReFrames формата : 2 кадра
Параметр GOP формата : M=2, N=12
Идентификатор кодека : V_MPEG4/ISO/AVC
Продолжительность : 1 ч. 44 м.
Вид битрейта : Переменный
Битрейт : 18,9 Мбит/сек
Максимальный битрейт : 22,0 Мбит/сек
Ширина : 1920 пикселей
Высота : 1080 пикселей
Соотношение сторон : 16:9
Режим частоты кадров : Постоянный
Частота кадров : 23,976 (24000/1001) кадра/сек
Цветовое пространство : YUV
Субдискретизация насыщенности : 4:2:0
Битовая глубина : 8 бит
Тип развёртки : Прогрессивная
Бит/(Пиксели*Кадры) : 0.380
Размер потока : 13,7 Гбайт (86%)
Default : Да
Forced : Нет
Аудио
Идентификатор : 2
Формат : DTS
Формат/Информация : Digital Theater Systems
Профиль формата : MA / Core
Режим : 16
Параметр Endianness формата : Big
Идентификатор кодека : A_DTS
Продолжительность : 1 ч. 44 м.
Вид битрейта : Переменный / Постоянный
Битрейт : 3186 Кбит/сек / 1509 Кбит/сек
Каналы : 6 каналов
Расположение каналов : Front: L C R, Side: L R, LFE
Частота : 48,0 КГц
Частота кадров : 93,750 кадра/сек (512 spf)
Битовая глубина : 24 бит
Метод сжатия : Без потерь / Lossy
Размер потока : 2,31 Гбайт (14%)
Язык : Russian
Default : Да
Forced : Нет
Скриншоты:

[Цитировать]

Топик был перенесен из форума Новинки кинопроката (HD Video) в форум Зарубежные фильмы
Scorpio



Показать сообщения:    

Текущее время: 20-Сен 10:37

Часовой пояс: UTC + 6


Вы не можете начинать темы
Вы не можете отвечать на сообщения
Вы не можете редактировать свои сообщения
Вы не можете удалять свои сообщения
Вы не можете голосовать в опросах
Вы не можете прикреплять файлы к сообщениям
Вы не можете скачивать файлы

!ВНИМАНИЕ!
Сайт не предоставляет электронные версии произведений, а занимается лишь коллекционированием и каталогизацией ссылок, присылаемых и публикуемых на форуме нашими читателями. Если вы являетесь правообладателем какого-либо представленного материала и не желаете, чтобы ссылка на него находилась в нашем каталоге, свяжитесь с нами, и мы незамедлительно удалим ее. Файлы для обмена на трекере предоставлены пользователями сайта, и администрация не несет ответственности за их содержание. Просьба не заливать файлы, защищенные авторскими правами, а также файлы нелегального содержания!