***Уважаемые пользователи и гости !!! Сайт переехал на новый домен Torrents-club.info. Просьба изменить ваши закладки! ***
 
[ Сегодня идет свободное скачивание без начисления Download ]


Статистика раздачи
Нет
 
   
 
 
 
 
Связь / Bound Информация о фильме
Название: Связь
Оригинальное название: Bound
Год выхода: 1996
Жанр: триллер, драма, мелодрама, криминал
Режиссер: Лана Вачовски, Лилли Вачовски
В ролях: Дженнифер Тилли, Джина Гершон, Джо Пантольяно, Джон П. Райан, Кристофер Мелони, Ричард С. Сарафьян, Мэри Мара, Сьюзи Брайт, Маргарет Смит, Бэрри Кивел
О фильме:
Один из членов мафии присвоил два миллиона долларов, был разоблачен, подвергнут пыткам и убит. Все это происходило на глазах Вайолет, любовницы гангстера Сизара, у них дома. Она вообще многое знала, поскольку Сизар никогда ничего от нее не скрывал. А в соседней квартире обосновалась только что вышедшая из тюрьмы суперсексуальная лесбиянка Корки.
Так родилась страстная связь двух женщин, а вместе с ней и идея присвоить те самые миллионы, которые хранятся у Сизара для босса мафии Джино Марзоне. Но не все пошло так, как было задумано.

Страна: США
Студия: Dino De Laurentiis Productions, Spelling Films
Продолжительность: 01:48:34
Перевод: Профессиональный (многоголосый, закадровый) R5 + Авторский (одноголосый, закадровый) П.Карцев
Файл
Формат: Matroska
Качество: BDRip 720p
Видео: 1280x690 at 23.976 fps, x264@L4.1, ~6000 kbps avg
Аудио#1: Russian: 48 kHz, AC3 Dolby Digital, 3/2 (L,C,R,l,r) + LFE ch, ~448 kbps avg |Многоголосый закадровый, R5|
Аудио#2: Russian: 48 kHz, AC3 Dolby Digital, 3/2 (L,C,R,l,r) + LFE ch, ~448 kbps avg |Авторский, П.Карцев|
Аудио#3: English: 48 kHz, AC3 Dolby Digital, 3/2 (L,C,R,l,r) + LFE ch, ~448 kbps avg
Субтиры: Russian
***Сохранены оригинальные главы как на Blu-ray.
***Релиз - msltel.

MI

Общее
Уникальный идентификатор : 228523668212345800818044572105379906952 (0xABEC0EBC53A10EF0BCBD0417A6978588)
Полное имя : Связь.1996.BDRip.720p by msltel.mkv
Формат : Matroska
Версия формата : Version 4 / Version 2
Размер файла : 5,64 Гбайт
Продолжительность : 1 ч. 48 м.
Общий поток : 7443 Кбит/сек
Название фильма : Rip by msltel
Дата кодирования : UTC 2016-11-01 02:36:36
Программа кодирования : mkvmerge v8.2.0 ('World of Adventure') 64bit
Библиотека кодирования : libebml v1.3.1 + libmatroska v1.4.2
Видео
Идентификатор : 1
Формат : AVC
Формат/Информация : Advanced Video Codec
Профиль формата : High@L4.1
Параметр CABAC формата : Да
Параметр ReFrames формата : 9 кадров
Идентификатор кодека : V_MPEG4/ISO/AVC
Продолжительность : 1 ч. 48 м.
Битрейт : 6096 Кбит/сек
Ширина : 1280 пикселей
Высота : 690 пикселей
Соотношение сторон : 1,85:1
Режим частоты кадров : Постоянный
Частота кадров : 23,976 (24000/1001) кадра/сек
Цветовое пространство : YUV
Субдискретизация насыщенности : 4:2:0
Битовая глубина : 8 бит
Тип развёртки : Прогрессивная
Бит/(Пиксели*Кадры) : 0.288
Размер потока : 4,62 Гбайт (82%)
Заголовок : Rip by msltel
Библиотека кодирования : x264 core 146 r2538 121396c
Настройки программы : cabac=1 / ref=9 / deblock=1:-3:-3 / analyse=0x3:0x113 / me=umh / subme=10 / psy=1 / psy_rd=1.00:0.15 / mixed_ref=1 / me_range=32 / chroma_me=1 / trellis=2 / 8x8dct=1 / cqm=0 / deadzone=21,11 / fast_pskip=0 / chroma_qp_offset=-3 / threads=6 / lookahead_threads=1 / sliced_threads=0 / nr=0 / decimate=1 / interlaced=0 / bluray_compat=0 / constrained_intra=0 / bframes=8 / b_pyramid=2 / b_adapt=2 / b_bias=0 / direct=1 / weightb=1 / open_gop=0 / weightp=2 / keyint=230 / keyint_min=23 / scenecut=40 / intra_refresh=0 / rc_lookahead=40 / rc=crf / mbtree=0 / crf=18.1 / qcomp=0.60 / qpmin=0 / qpmax=69 / qpstep=4 / vbv_maxrate=40000 / vbv_bufsize=50000 / crf_max=0.0 / nal_hrd=none / filler=0 / ip_ratio=1.40 / pb_ratio=1.30 / aq=1:1.00
Язык : English
Default : Да
Forced : Нет
Аудио #1
Идентификатор : 2
Формат : AC-3
Формат/Информация : Audio Coding 3
Расширение режима : CM (complete main)
Параметр Endianness формата : Big
Идентификатор кодека : A_AC3
Продолжительность : 1 ч. 48 м.
Вид битрейта : Постоянный
Битрейт : 448 Кбит/сек
Каналы : 6 каналов
Расположение каналов : Front: L C R, Side: L R, LFE
Частота : 48,0 КГц
Частота кадров : 31,250 кадров/сек (1536 spf)
Метод сжатия : С потерями
Размер потока : 348 Мбайт (6%)
Заголовок : MVO (лицезия)
Язык : Russian
Default : Да
Forced : Нет
Аудио #2
Идентификатор : 3
Формат : AC-3
Формат/Информация : Audio Coding 3
Расширение режима : CM (complete main)
Параметр Endianness формата : Big
Идентификатор кодека : A_AC3
Продолжительность : 1 ч. 48 м.
Вид битрейта : Постоянный
Битрейт : 448 Кбит/сек
Каналы : 6 каналов
Расположение каналов : Front: L C R, Side: L R, LFE
Частота : 48,0 КГц
Частота кадров : 31,250 кадров/сек (1536 spf)
Метод сжатия : С потерями
Размер потока : 348 Мбайт (6%)
Заголовок : AVO (Пётр Карцев)
Язык : Russian
Default : Нет
Forced : Нет
Аудио #3
Идентификатор : 4
Формат : AC-3
Формат/Информация : Audio Coding 3
Расширение режима : CM (complete main)
Параметр Endianness формата : Big
Идентификатор кодека : A_AC3
Продолжительность : 1 ч. 48 м.
Вид битрейта : Постоянный
Битрейт : 448 Кбит/сек
Каналы : 6 каналов
Расположение каналов : Front: L C R, Side: L R, LFE
Частота : 48,0 КГц
Частота кадров : 31,250 кадров/сек (1536 spf)
Метод сжатия : С потерями
Размер потока : 348 Мбайт (6%)
Заголовок : original
Язык : English
Default : Нет
Forced : Нет
Текст #1
Идентификатор : 5
Формат : UTF-8
Идентификатор кодека : S_TEXT/UTF8
Идентификатор кодека/Информация : UTF-8 Plain Text
Продолжительность : 1 ч. 44 м.
Битрейт : 67 бит/сек
Count of elements : 1076
Размер потока : 52,1 Кбайт (0%)
Заголовок : русские (вариант 1)
Язык : Russian
Default : Нет
Forced : Нет
Текст #2
Идентификатор : 6
Формат : UTF-8
Идентификатор кодека : S_TEXT/UTF8
Идентификатор кодека/Информация : UTF-8 Plain Text
Продолжительность : 1 ч. 42 м.
Битрейт : 83 бит/сек
Count of elements : 1216
Размер потока : 62,5 Кбайт (0%)
Заголовок : русские (вариант 2)
Язык : Russian
Default : Нет
Forced : Нет
Меню
00:00:00.000 : :Chapter 01
00:00:57.432 : :Chapter 02
00:02:00.787 : :Chapter 03
00:06:17.335 : :Chapter 04
00:09:13.386 : :Chapter 05
00:15:32.473 : :Chapter 06
00:20:55.921 : :Chapter 07
00:22:47.324 : :Chapter 08
00:26:02.561 : :Chapter 09
00:31:16.374 : :Chapter 10
00:35:59.824 : :Chapter 11
00:41:48.130 : :Chapter 12
00:47:53.870 : :Chapter 13
00:54:25.845 : :Chapter 14
01:01:41.072 : :Chapter 15
01:06:55.052 : :Chapter 16
01:12:54.495 : :Chapter 17
01:18:03.929 : :Chapter 18
01:22:25.857 : :Chapter 19
01:28:27.468 : :Chapter 20
01:36:08.053 : :Chapter 21
01:41:49.937 : :Chapter 22
01:44:07.241 : :Chapter 23
01:48:34.466 : :Chapter 24

Скриншоты

[Цитировать]



Показать сообщения:    

Текущее время: 02-Окт 00:46

Часовой пояс: UTC + 6


Вы не можете начинать темы
Вы не можете отвечать на сообщения
Вы не можете редактировать свои сообщения
Вы не можете удалять свои сообщения
Вы не можете голосовать в опросах
Вы не можете прикреплять файлы к сообщениям
Вы не можете скачивать файлы

!ВНИМАНИЕ!
Сайт не предоставляет электронные версии произведений, а занимается лишь коллекционированием и каталогизацией ссылок, присылаемых и публикуемых на форуме нашими читателями. Если вы являетесь правообладателем какого-либо представленного материала и не желаете, чтобы ссылка на него находилась в нашем каталоге, свяжитесь с нами, и мы незамедлительно удалим ее. Файлы для обмена на трекере предоставлены пользователями сайта, и администрация не несет ответственности за их содержание. Просьба не заливать файлы, защищенные авторскими правами, а также файлы нелегального содержания!