***Уважаемые пользователи и гости !!! Сайт переехал на новый домен Torrents-club.info. Просьба изменить ваши закладки! ***
 
[ Сегодня идет свободное скачивание без начисления Download ]


Статистика раздачи
Нет
 
   
 
 
 
 
В тихом омуте / Ma Loute (2016) HDRip- Производство: Франция
Жанр: Комедия
Режиссер: Брюно Дюмон
Продюсер: Рашид Бушареб, Жан Бреа, Мюриэль Мерлин
Актеры: Фабрис Лукини, Жюльетт Бинош, Валерия Бруни-Тедески, Жан-Люк Винсент, Брандон Лавьевиль, Ральф, Дидье Депре, Сирил Риго, Лаура Дюпре, Тьерри Лавьевиль.
Описание:
Лето 1910 года. Один за другим исчезают туристы, забредающие в тихую бухту, где живут Брефоры — полунищая семейка собирателей мидий. Неподалеку в собственном особняке каждое лето проводят ван Петегемы, буржуа с претензией на декаданс, но с явными признаками психических отклонений у всех членов семьи, за исключением красавицы Билли. Да и с ней, собственно, что-то не так. Семейки явно недолюбливают друг друга, но юные Малют Брефор и Билли ван Петегем внезапно ощущают влечение друг к другу. История усугубляется тем, что Брефоры — каннибалы, втихую поедающие одиноких путников (на одних мидиях долго не протянешь), а ван Петегемы — просто идиоты! Свою долю хаоса добавляют придурковатые инспекторы Машан и Малфой, прибывшие расследовать таинственные исчезновения.

Возраст: 16+ (зрителям, достигшим 16 лет)
Дата мировой премьеры: 13 мая 2016
Дата российской премьеры: 7 июля 2016, «Cinema Prestige»
Релиз от: GreenРай Studio
Продолжительность: 02:03:06
Качество видео: HDRip
Перевод: Дублированный (iTunes)
Субтитры: Отсутствуют
Реклама: Присутствуют голосовые и текстовые вставки рекламы. Начальный рекламный ролик вырезан.
Видео: Xvid, 720х304, 23.976 fps, 1182 Kbps
Аудио: AC3, 2 ch, 384 Kbps, CBR

Тех. инфо

Общее
Полное имя : D:\Фильмы\Мои раздачи\В тихом омуте\В тихом омуте.2016.D.HDRip.1400MB.avi
Формат : AVI
Формат/Информация : Audio Video Interleave
Размер файла : 1,35 Гбайт
Продолжительность : 2 ч. 3 м.
Общий поток : 1575 Кбит/сек
Программа кодирования : VirtualDubMod 1.5.10.2 (build 2540/release)
Библиотека кодирования : VirtualDub build 35390/release
Видео
Идентификатор : 0
Формат : MPEG-4 Visual
Профиль формата : Advanced Simple@L5
Параметр BVOP формата : 2
Параметр QPel формата : Нет
Параметр GMC формата : Без точки перехода
Параметр матрицы формата : Default (MPEG)
Идентификатор кодека : XVID
Идентификатор кодека/Подсказка : XviD
Продолжительность : 2 ч. 3 м.
Битрейт : 1182 Кбит/сек
Ширина : 720 пикселей
Высота : 304 пикселя
Соотношение сторон : 2,35:1
Частота кадров : 23,976 кадра/сек
Цветовое пространство : YUV
Субдискретизация насыщенности : 4:2:0
Битовая глубина : 8 бит
Тип развёртки : Прогрессивная
Метод сжатия : С потерями
Бит/(Пиксели*Кадры) : 0.225
Размер потока : 1,02 Гбайт (75%)
Библиотека кодирования : XviD 1.2.1 (UTC 2008-12-04)
Аудио
Идентификатор : 1
Формат : AC-3
Формат/Информация : Audio Coding 3
Расширение режима : CM (complete main)
Параметр Endianness формата : Big
Идентификатор кодека : 2000
Продолжительность : 2 ч. 3 м.
Вид битрейта : Постоянный
Битрейт : 384 Кбит/сек
Каналы : 2 канала
Расположение каналов : Front: L R
Частота : 48,0 КГц
Битовая глубина : 16 бит
Метод сжатия : С потерями
Задержка видео : 9 мс.
Размер потока : 338 Мбайт (24%)
Выравнивание : Разделение по промежуткам
Продолжительность промежутка : 42 мс. (1,00 видеокадр)
Время предзагрузки промежутка : 500 мс.
Скриншоты:

[Цитировать]



Показать сообщения:    

Текущее время: 02-Окт 03:44

Часовой пояс: UTC + 6


Вы не можете начинать темы
Вы не можете отвечать на сообщения
Вы не можете редактировать свои сообщения
Вы не можете удалять свои сообщения
Вы не можете голосовать в опросах
Вы не можете прикреплять файлы к сообщениям
Вы не можете скачивать файлы

!ВНИМАНИЕ!
Сайт не предоставляет электронные версии произведений, а занимается лишь коллекционированием и каталогизацией ссылок, присылаемых и публикуемых на форуме нашими читателями. Если вы являетесь правообладателем какого-либо представленного материала и не желаете, чтобы ссылка на него находилась в нашем каталоге, свяжитесь с нами, и мы незамедлительно удалим ее. Файлы для обмена на трекере предоставлены пользователями сайта, и администрация не несет ответственности за их содержание. Просьба не заливать файлы, защищенные авторскими правами, а также файлы нелегального содержания!