***Уважаемые пользователи и гости !!! Сайт переехал на новый домен Torrents-club.info. Просьба изменить ваши закладки! ***
 
[ Сегодня идет свободное скачивание без начисления Download ]


Статистика раздачи
Нет
 
   
 
 
 
 
Москва, я терплю тебя (2016) WEB-DLRip- Производство: Россия
Жанр: Драма, Мелодрама, Комедия
Режиссер: Сергей Аксёнов
Актеры: Илья Ермолов, Евгений Морозов, Николай Орловский, Лина Шишова, Марина Забелина, Евгений Волоцкий, Денис Шведов, Ольга Аксёнова, Дмитрий Супонин, Ульяна Урванцева.
Описание:
Москва. Редкий солнечный день. Александр надеется отдохнуть от рабочей суеты и заняться любимым делом. Однако клиенты требуют встреч, а девушка жаждет похода по магазинам. Вдобавок ко всему, на один день из Гомеля, приезжает бывший одноклассник, который, во что бы то ни стало, хочет выпить с Саней пиво. Да к тому же, срочно требуется помощь ещё одному другу. А тут, вдруг, к одной из клиенток вспыхивает любовь. А приехавший одноклассник внезапно рушит все планы. И всё это за один день. Оказывается, в бешеном водовороте столичной жизни, очень легко потерять себя. Либо наоборот, найти.

Возраст: 16+ (зрителям, достигшим 16 лет)
Дата российской премьеры: 13 октября 2016, «Люксор»
Дата выхода DVD/Blu-ray релиза: 21 ноября 2016, «НД Плэй»
Релиз от: KOSHARA
Продолжительность: 01:32:53
Качество видео: WEB-DLRip
Перевод: не требуется (русский)
Реклама: Присутствуют голосовые и текстовые вставки рекламы. Начальный рекламный ролик вырезан.
Субтитры: Отсутствуют
Видео: Xvid, 720х304, 25.000 fps, 910 Kbps
Аудио: AC3, 2 ch, 128 Kbps, CBR

Информация по видеофайлу

Общее
Полное имя : D:\Фильмы\Мои раздачи\Москва, я терплю тебя\Москва, я терплю тебя.2016.O.WEB-DLRip.700MB.avi
Формат : AVI
Формат/Информация : Audio Video Interleave
Размер файла : 696 Мбайт
Продолжительность : 1 ч. 32 м.
Общий поток : 1048 Кбит/сек
Программа кодирования : VirtualDubMod 1.5.10.2 (build 2540/release)
Библиотека кодирования : VirtualDub build 35390/release
Видео
Идентификатор : 0
Формат : MPEG-4 Visual
Профиль формата : Advanced Simple@L5
Параметр BVOP формата : 2
Параметр QPel формата : Нет
Параметр GMC формата : Без точки перехода
Параметр матрицы формата : Default (MPEG)
Идентификатор кодека : XVID
Идентификатор кодека/Подсказка : XviD
Продолжительность : 1 ч. 32 м.
Битрейт : 910 Кбит/сек
Ширина : 720 пикселей
Высота : 304 пикселя
Соотношение сторон : 2,35:1
Частота кадров : 25,000 кадров/сек
Цветовое пространство : YUV
Субдискретизация насыщенности : 4:2:0
Битовая глубина : 8 бит
Тип развёртки : Прогрессивная
Метод сжатия : С потерями
Бит/(Пиксели*Кадры) : 0.166
Размер потока : 605 Мбайт (87%)
Библиотека кодирования : XviD 1.2.1 (UTC 2008-12-04)
Аудио
Идентификатор : 1
Формат : AC-3
Формат/Информация : Audio Coding 3
Расширение режима : CM (complete main)
Параметр Endianness формата : Big
Идентификатор кодека : 2000
Продолжительность : 1 ч. 32 м.
Вид битрейта : Постоянный
Битрейт : 128 Кбит/сек
Каналы : 2 канала
Расположение каналов : Front: L R
Частота : 48,0 КГц
Битовая глубина : 16 бит
Метод сжатия : С потерями
Задержка видео : 16 мс.
Размер потока : 85,0 Мбайт (12%)
Выравнивание : Разделение по промежуткам
Продолжительность промежутка : 40 мс. (1,00 видеокадр)
Время предзагрузки промежутка : 500 мс.
Скриншоты:

[Цитировать]



Показать сообщения:    

Текущее время: 28-Сен 09:20

Часовой пояс: UTC + 6


Вы не можете начинать темы
Вы не можете отвечать на сообщения
Вы не можете редактировать свои сообщения
Вы не можете удалять свои сообщения
Вы не можете голосовать в опросах
Вы не можете прикреплять файлы к сообщениям
Вы не можете скачивать файлы

!ВНИМАНИЕ!
Сайт не предоставляет электронные версии произведений, а занимается лишь коллекционированием и каталогизацией ссылок, присылаемых и публикуемых на форуме нашими читателями. Если вы являетесь правообладателем какого-либо представленного материала и не желаете, чтобы ссылка на него находилась в нашем каталоге, свяжитесь с нами, и мы незамедлительно удалим ее. Файлы для обмена на трекере предоставлены пользователями сайта, и администрация не несет ответственности за их содержание. Просьба не заливать файлы, защищенные авторскими правами, а также файлы нелегального содержания!