***Уважаемые пользователи и гости !!! Сайт переехал на новый домен Torrents-club.info. Просьба изменить ваши закладки! ***
 
[ Сегодня идет свободное скачивание без начисления Download ]


Статистика раздачи
Нет
 
   
 
 
 
 
Корпорация «Страх» / Fear, Inc. (2016) WEB-DL - Производство: США, Lone Suspect, Amasia Entertainment, Title Media
Жанр: Ужасы, Комедия
Режиссер: Винсент Машиал
Актеры: Лукас Нефф, Кэйтлин Стэйси, Крис Маркетт, Стефани Дрэйк, Марк Мозес, Эбигейл Бреслин, Ричард Рили, Патрик Ренна, Наоми Гроссман, Лесли Джордан
Описание:
В центре событий хоррора находится группа дегенератов, которые за определенное вознаграждение могут воплотить в жизнь самые большие страхи любого человека.
Одному из таких любителей ужасов, отпетому наркоману, а также его друзьям, предстоит понять, действительно ли нанятая компашка всего лишь устраивает представление или их клиенты — пешки в мерзкой игре.

Дата мировой премьеры: 15 апреля 2016
Дата российской премьеры: Неизвестно
Продолжительность: 01:31:49
Качество видео: WEB-DL
Перевод: Одноголосый закадровый, любительский
Озвучка: Хихикающий доктор
Язык субтитров: Английский
Вид субтитров: Вшитые отключаемые
Реклама: В начале и в конце присутствует реклама. (Совсем чуть-чуть)
Видео: AVC/H.264, 1908x792, ~4501 Kbps
Аудио 1: Русский (АС3, 2 ch, 192 Kbps, CBR)
Аудио 2: Английский (AC3, 6 ch, 384 Kbps, CBR)

Информация по видеофайлу

Общее
Уникальный идентификатор : 191617721678803325053654200956599873157 (0x90283B1614301ADCAC463729C9AF2E85)
Полное имя : E:\MMMM\Fear.Inc.2016.1080p.WEB-DL.H264.mkv
Формат : Matroska
Версия формата : Version 4 / Version 2
Размер файла : 3,32 Гбайт
Продолжительность : 1 ч. 31 м.
Общий поток : 5180 Кбит/сек
Название фильма : Fear.Inc.2016.1080p.WEB-DL
Дата кодирования : UTC 2016-11-01 16:08:58
Программа кодирования : mkvmerge v6.9.1 ('Blue Panther') 64bit built on Apr 18 2014 18:23:38
Библиотека кодирования : libebml v1.3.0 + libmatroska v1.4.1
Обложка : Yes
Attachments : cover_land.jpg / small_cover.jpg / small_cover_land.jpg / cover.jpg
Видео
Идентификатор : 1
Формат : AVC
Формат/Информация : Advanced Video Codec
Профиль формата : High@L4
Параметр CABAC формата : Да
Параметр ReFrames формата : 5 кадров
Идентификатор кодека : V_MPEG4/ISO/AVC
Продолжительность : 1 ч. 31 м.
Битрейт : 4501 Кбит/сек
Ширина : 1908 пикселей
Высота : 792 пикселя
Соотношение сторон : 2,40:1
Режим частоты кадров : Постоянный
Частота кадров : 23,976 (24000/1001) кадра/сек
Цветовое пространство : YUV
Субдискретизация насыщенности : 4:2:0
Битовая глубина : 8 бит
Тип развёртки : Прогрессивная
Бит/(Пиксели*Кадры) : 0.124
Размер потока : 2,89 Гбайт (87%)
Язык : English
Default : Да
Forced : Нет
Цветовой диапазон : Limited
Основные цвета : BT.709
Характеристики трансфера : BT.709
Коэффициенты матрицы : BT.709
Аудио #1
Идентификатор : 2
Формат : AC-3
Формат/Информация : Audio Coding 3
Расширение режима : CM (complete main)
Параметр Endianness формата : Big
Идентификатор кодека : A_AC3
Продолжительность : 1 ч. 31 м.
Вид битрейта : Постоянный
Битрейт : 192 Кбит/сек
Каналы : 2 канала
Расположение каналов : Front: L R
Частота : 48,0 КГц
Частота кадров : 31,250 кадров/сек (1536 spf)
Метод сжатия : С потерями
Размер потока : 126 Мбайт (4%)
Заголовок : Xixidoktor
Язык : Russian
Default : Да
Forced : Нет
Аудио #2
Идентификатор : 3
Формат : AC-3
Формат/Информация : Audio Coding 3
Расширение режима : CM (complete main)
Параметр Endianness формата : Big
Идентификатор кодека : A_AC3
Продолжительность : 1 ч. 31 м.
Вид битрейта : Постоянный
Битрейт : 384 Кбит/сек
Каналы : 6 каналов
Расположение каналов : Front: L C R, Side: L R, LFE
Частота : 48,0 КГц
Частота кадров : 31,250 кадров/сек (1536 spf)
Метод сжатия : С потерями
Размер потока : 252 Мбайт (7%)
Заголовок : original
Язык : English
Default : Нет
Forced : Нет
Текст
Идентификатор : 4
Формат : UTF-8
Идентификатор кодека : S_TEXT/UTF8
Идентификатор кодека/Информация : UTF-8 Plain Text
Язык : English
Default : Нет
Forced : Нет
Меню
00:00:00.000 : en:1
00:10:46.000 : en:2
00:19:20.000 : en:3
00:29:13.000 : en:4
00:38:28.000 : en:5
00:48:43.000 : en:6
00:59:33.000 : en:7
01:08:23.000 : en:8
01:19:10.000 : en:9
01:27:50.000 : en:10
Скриншоты:

Дополнительные скриншоты:

[Цитировать]



Показать сообщения:    

Текущее время: 27-Сен 21:48

Часовой пояс: UTC + 6


Вы не можете начинать темы
Вы не можете отвечать на сообщения
Вы не можете редактировать свои сообщения
Вы не можете удалять свои сообщения
Вы не можете голосовать в опросах
Вы не можете прикреплять файлы к сообщениям
Вы не можете скачивать файлы

!ВНИМАНИЕ!
Сайт не предоставляет электронные версии произведений, а занимается лишь коллекционированием и каталогизацией ссылок, присылаемых и публикуемых на форуме нашими читателями. Если вы являетесь правообладателем какого-либо представленного материала и не желаете, чтобы ссылка на него находилась в нашем каталоге, свяжитесь с нами, и мы незамедлительно удалим ее. Файлы для обмена на трекере предоставлены пользователями сайта, и администрация не несет ответственности за их содержание. Просьба не заливать файлы, защищенные авторскими правами, а также файлы нелегального содержания!