***Уважаемые пользователи и гости !!! Сайт переехал на новый домен Torrents-club.info. Просьба изменить ваши закладки! ***
 
[ Сегодня идет свободное скачивание без начисления Download ]


Статистика раздачи
Нет
 
   
 
 
 
 
Вечное сияние чистого разума / Eternal Sunshine of the Spotless Mind Информация о фильме
Название: Вечное сияние чистого разума
Оригинальное название: Eternal Sunshine of the Spotless Mind
Год выхода: 2004
Жанр: Драма, фантастика, мелодрама
Режиссер: Мишель Гондри
В ролях: Джим Керри, Кейт Уинслет, Джерри Роберт Бирн, Элайджа Вуд, Томас Джей Райан, Марк Руффало, Джейн Адамс (II), Дэвид Кросс, Кирстен Данст, Том Уилкинсон, Райан Уитни, Деббон Эйер, Амир Али Сэд, Брайан Прайс, Пол Литовски, Джош Флиттер, Лола Дэлер, Дирдри О`Коннелл, Лоурен Адлер
О фильме: Наконец-то изобретена машина, которая позволяет избавиться от любых воспоминаний. Джоэль и Клементина решают выбросить друг друга из головы. Но в памяти Джоэля все еще живы самые нежные моменты их чувства. Чем меньше он помнит, тем больше любит. Понимая, что он просто обожает Клементину, Джоэль пытается найти способ, чтобы вернуть любимой память о прошлом. Пока еще не очень поздно… Он должен победить ненавистный компьютерный мозг во что бы то ни стало!

Страна: США
Студия: Focus Features, This Is That Productions
Продолжительность: 01:47:41
Перевод: Дублированный, профессиональный двухголосый, авторский одноголосый, украинский
Файл
Кодек: MPEG-4 AVC
Качество: BDRip-AVC
Видео: 3100 Кбит/с, 1024х554, 23.976 кадр/с
Звук:
Аудио #1: Русский (AC3, 6 ch, 448 Кбит/с) / Дублированный (студия "Парадиз")
Аудио #2: Русский (AC3, 6 ch, 448 Кбит/с) / Профессиональный двухголосый
Аудио #3: Русский (AC3, 6 ch, 448 Кбит/с) / Авторский одноголосый (А. Алексеев)
Аудио #4: Русский (AC3, 6 ch, 448 Кбит/с) / Авторский одноголосый (В. Королев)
Аудио #5: Русский (AC3, 6 ch, 448 Кбит/с) / Авторский одноголосый (Е. Рудой)
Аудио #6: Русский (AC3, 6 ch, 448 Кбит/с) / Авторский одноголосый (В. Горчаков)
Аудио #7: Украинский (AC3, 2 ch, 192 Кбит/с) / Профессиональный двухголосый
Аудио #8: Английский (AC3, 6 ch, 448 Кбит/с)
Субтитры: Русские, украинские, английские
Семпл

MediaInfo:

Общее
Уникальный идентификатор : 233921511401838155232896889611123172941 (0xAFFBA4F3C30E8860909B125B1D3C264D)
Полное имя : F:3Films FРелизыVechnoe.sijanie.chistogo.razuma.2004.x264.BDRip.AVC.MediaClub.mkv
Формат : Matroska
Версия формата : Version 4 / Version 2
Размер файла : 4,84 Гбайт
Продолжительность : 1 ч. 47 м.
Общий поток : 6424 Кбит/сек
Название фильма : -= MediaClub =- rip by Lefevr
Дата кодирования : UTC 2014-05-26 16:26:02
Программа кодирования : mkvmerge v6.6.0 ('The Edge Of The In Between') built on Dec 1 2013 17:55:00
Библиотека кодирования : libebml v1.3.0 + libmatroska v1.4.1
Видео
Идентификатор : 1
Формат : AVC
Формат/Информация : Advanced Video Codec
Профиль формата : High@L4.1
Параметр CABAC формата : Да
Параметр ReFrames формата : 9 кадров
Идентификатор кодека : V_MPEG4/ISO/AVC
Продолжительность : 1 ч. 47 м.
Битрейт : 3100 Кбит/сек
Ширина : 1024 пикселя
Высота : 554 пикселя
Соотношение сторон : 1,85:1
Режим частоты кадров : Постоянный
Частота кадров : 23,976 кадра/сек
Цветовое пространство : YUV
Субдискретизация насыщенности : 4:2:0
Битовая глубина : 8 бит
Тип развёртки : Прогрессивная
Бит/(Пиксели*Кадры) : 0.228
Размер потока : 2,24 Гбайт (46%)
Заголовок : Vechnoe.sijanie.chistogo.razuma.2004.x264.BDRip.AVC.MediaClub
Библиотека кодирования : x264 core 142 r2409+42 04be48a tMod [8-bit@4:2:0 X86]
Настройки программы : cabac=1 / ref=9 / deblock=1:-2:-2 / analyse=0x3:0x133 / me=umh / subme=11 / psy=1 / fade_compensate=0.00 / psy_rd=1.00:0.15 / mixed_ref=1 / me_range=32 / chroma_me=1 / trellis=2 / 8x8dct=1 / cqm=0 / deadzone=21,11 / fast_pskip=0 / chroma_qp_offset=-3 / threads=6 / lookahead_threads=1 / sliced_threads=0 / nr=0 / decimate=0 / interlaced=0 / bluray_compat=0 / constrained_intra=0 / fgo=0 / bframes=8 / b_pyramid=2 / b_adapt=2 / b_bias=0 / direct=3 / weightb=1 / open_gop=0 / weightp=2 / keyint=240 / keyint_min=23 / scenecut=40 / intra_refresh=0 / rc=2pass / mbtree=0 / bitrate=3100 / ratetol=1.0 / qcomp=0.60 / qpmin=0:0:0 / qpmax=69:69:69 / qpstep=4 / cplxblur=20.0 / qblur=0.5 / ip_ratio=1.40 / pb_ratio=1.30 / aq=1:1.00 / aq-sensitivity=10.00 / aq-factor=1.00:1.00:1.00 / aq2=0 / aq3=0
Язык : English
Default : Да
Forced : Нет
Аудио #1
Идентификатор : 2
Формат : AC-3
Формат/Информация : Audio Coding 3
Расширение режима : CM (complete main)
Параметр Endianness формата : Big
Идентификатор кодека : A_AC3
Продолжительность : 1 ч. 47 м.
Вид битрейта : Постоянный
Битрейт : 448 Кбит/сек
Каналы : 6 каналов
Расположение каналов : Front: L C R, Side: L R, LFE
Частота : 48,0 КГц
Битовая глубина : 16 бит
Метод сжатия : С потерями
Размер потока : 345 Мбайт (7%)
Заголовок : TRACK_01_DUB_RUS_Paradiz
Язык : Russian
Default : Да
Forced : Да
Аудио #2
Идентификатор : 3
Формат : AC-3
Формат/Информация : Audio Coding 3
Расширение режима : CM (complete main)
Параметр Endianness формата : Big
Идентификатор кодека : A_AC3
Продолжительность : 1 ч. 47 м.
Вид битрейта : Постоянный
Битрейт : 448 Кбит/сек
Каналы : 6 каналов
Расположение каналов : Front: L C R, Side: L R, LFE
Частота : 48,0 КГц
Битовая глубина : 16 бит
Метод сжатия : С потерями
Размер потока : 345 Мбайт (7%)
Заголовок : TRACK_02_DVO_RUS
Язык : Russian
Default : Нет
Forced : Нет
Аудио #3
Идентификатор : 4
Формат : AC-3
Формат/Информация : Audio Coding 3
Расширение режима : CM (complete main)
Параметр Endianness формата : Big
Идентификатор кодека : A_AC3
Продолжительность : 1 ч. 47 м.
Вид битрейта : Постоянный
Битрейт : 448 Кбит/сек
Каналы : 6 каналов
Расположение каналов : Front: L C R, Side: L R, LFE
Частота : 48,0 КГц
Битовая глубина : 16 бит
Метод сжатия : С потерями
Размер потока : 345 Мбайт (7%)
Заголовок : TRACK_03_AVO_RUS_Alexeev
Язык : Russian
Default : Нет
Forced : Нет
Аудио #4
Идентификатор : 5
Формат : AC-3
Формат/Информация : Audio Coding 3
Расширение режима : CM (complete main)
Параметр Endianness формата : Big
Идентификатор кодека : A_AC3
Продолжительность : 1 ч. 47 м.
Вид битрейта : Постоянный
Битрейт : 448 Кбит/сек
Каналы : 6 каналов
Расположение каналов : Front: L C R, Side: L R, LFE
Частота : 48,0 КГц
Битовая глубина : 16 бит
Метод сжатия : С потерями
Размер потока : 345 Мбайт (7%)
Заголовок : TRACK_04_AVO_RUS_Korolev
Язык : Russian
Default : Нет
Forced : Нет
Аудио #5
Идентификатор : 6
Формат : AC-3
Формат/Информация : Audio Coding 3
Расширение режима : CM (complete main)
Параметр Endianness формата : Big
Идентификатор кодека : A_AC3
Продолжительность : 1 ч. 47 м.
Вид битрейта : Постоянный
Битрейт : 448 Кбит/сек
Каналы : 6 каналов
Расположение каналов : Front: L C R, Side: L R, LFE
Частота : 48,0 КГц
Битовая глубина : 16 бит
Метод сжатия : С потерями
Размер потока : 345 Мбайт (7%)
Заголовок : TRACK_05_AVO_RUS_Rudoj
Язык : Russian
Default : Нет
Forced : Нет
Аудио #6
Идентификатор : 7
Формат : AC-3
Формат/Информация : Audio Coding 3
Расширение режима : CM (complete main)
Параметр Endianness формата : Big
Идентификатор кодека : A_AC3
Продолжительность : 1 ч. 47 м.
Вид битрейта : Постоянный
Битрейт : 448 Кбит/сек
Каналы : 6 каналов
Расположение каналов : Front: L C R, Side: L R, LFE
Частота : 48,0 КГц
Битовая глубина : 16 бит
Метод сжатия : С потерями
Размер потока : 345 Мбайт (7%)
Заголовок : TRACK_06_AVO_RUS_Gorchakov
Язык : Russian
Default : Нет
Forced : Нет
Аудио #7
Идентификатор : 8
Формат : AC-3
Формат/Информация : Audio Coding 3
Расширение режима : CM (complete main)
Параметр Endianness формата : Big
Идентификатор кодека : A_AC3
Продолжительность : 1 ч. 47 м.
Вид битрейта : Постоянный
Битрейт : 192 Кбит/сек
Каналы : 2 канала
Расположение каналов : Front: L R
Частота : 48,0 КГц
Битовая глубина : 16 бит
Метод сжатия : С потерями
Размер потока : 148 Мбайт (3%)
Заголовок : TRACK_07_DVO_UKR_1+1
Язык : Ukrainian
Default : Нет
Forced : Нет
Аудио #8
Идентификатор : 9
Формат : AC-3
Формат/Информация : Audio Coding 3
Расширение режима : CM (complete main)
Параметр Endianness формата : Big
Идентификатор кодека : A_AC3
Продолжительность : 1 ч. 47 м.
Вид битрейта : Постоянный
Битрейт : 448 Кбит/сек
Каналы : 6 каналов
Расположение каналов : Front: L C R, Side: L R, LFE
Частота : 48,0 КГц
Битовая глубина : 16 бит
Метод сжатия : С потерями
Размер потока : 345 Мбайт (7%)
Заголовок : TRACK_08_ORIGINAL_ENG
Язык : English
Default : Нет
Forced : Нет
Текст #1
Идентификатор : 10
Формат : UTF-8
Идентификатор кодека : S_TEXT/UTF8
Идентификатор кодека/Информация : UTF-8 Plain Text
Заголовок : TEXT_01_SUB_RUS
Язык : Russian
Default : Нет
Forced : Нет
Текст #2
Идентификатор : 11
Формат : UTF-8
Идентификатор кодека : S_TEXT/UTF8
Идентификатор кодека/Информация : UTF-8 Plain Text
Заголовок : TEXT_02_SUB_UKR
Язык : Ukrainian
Default : Нет
Forced : Нет
Текст #3
Идентификатор : 12
Формат : UTF-8
Идентификатор кодека : S_TEXT/UTF8
Идентификатор кодека/Информация : UTF-8 Plain Text
Заголовок : TEXT_03_SUB_ENG
Язык : English
Default : Нет
Forced : Нет
Меню
00:00:00.000 : en:Valentine's Day
00:03:42.722 : en:Clementine
00:10:30.753 : en:Two Blue Ruins
00:13:24.845 : en:Honeymoon on Ice
00:17:37.388 : en:Main Titles
00:19:34.839 : en:Erased
00:25:11.300 : en:Lacuna Inc.
00:28:00.302 : en:Empty Your Life...
00:35:08.063 : en:Erasing You
00:43:06.083 : en:Blessed Are the Forgetful
00:49:28.590 : en:Tangerine
00:52:13.213 : en:Wake Me Up
00:59:23.976 : en:Baby Joel
01:02:52.726 : en:Off the Map
01:15:49.920 : en:The Blameless Vestal's Lot
01:21:27.798 : en:Remember Me...
01:24:22.180 : en:Goodbye, Joel
01:31:44.664 : en:The Next Morning
01:35:51.746 : en:Change Your Heart...
01:44:05.279 : en:End Titles
01:47:38.784 : en:Valentine's Day
...last pass...
x264.exe: --pass 2 --bitrate 3100 --preset slow --profile high --level 4.1 --ref 9 --deblock -2:-2 --merange 32 --bframes 8 --trellis 2 --no-fast-pskip --no-dct-decimate --psy-rd 1.00:0.15 --partitions all --subme 11 --no-mbtree --keyint 240 --sar 1:1 --stats "C:1Films CРелизыSUNSHINE11111.log" --output "C:1Films CРелизыSUNSHINE11111.mkv" "C:Temp301.avs"
avs [info]: 1024x554p 1:1 @ 24000/1001 fps (cfr)
avs [info]: color matrix: undef
x264 [info]: using SAR=1/1
x264 [info]: using cpu capabilities: MMX2 SSE2Fast SSSE3 SSE4.2 AVX
x264 [info]: profile High, level 4.1
x264 [info]: cabac=1 ref=9 deblock=1:-2:-2 analyse=0x3:0x133 me=umh subme=11 psy=1 fade_compensate=0.00 psy_rd=1.00:0.15 mixed_ref=1 me_range=32 chroma_me=1 trellis=2 8x8dct=1 cqm=0 deadzone=21,11 fast_pskip=0 chroma_qp_offset=-3 threads=6 lookahead_threads=1 sliced_threads=0 nr=0 decimate=0 interlaced=0 bluray_compat=0 constrained_intra=0 fgo=0 bframes=8 b_pyramid=2 b_adapt=2 b_bias=0 direct=3 weightb=1 open_gop=0 weightp=2 keyint=240 keyint_min=23 scenecut=40 intra_refresh=0 rc=2pass mbtree=0 bitrate=3100 ratetol=1.0 qcomp=0.60 qpmin=0:0:0 qpmax=69:69:69 qpstep=4 cplxblur=20.0 qblur=0.5 ip_ratio=1.40 pb_ratio=1.30 aq=1:1.00 aq-sensitivity=10.00 aq-factor=1.00:1.00:1.00 aq2=0 aq3=0
x264 [info]: started at Sat May 17 23:57:29 2014
x264 [info]: frame I:1032 Avg QP:16.92 size: 74059
x264 [info]: frame P:35270 Avg QP:19.79 size: 28643
x264 [info]: frame B:118618 Avg QP:21.41 size: 11936
x264 [info]: consecutive B-frames: 2.9% 4.4% 9.7% 16.7% 16.9% 31.5% 7.8% 3.3% 6.7%
x264 [info]: mb I I16..4: 10.8% 75.2% 14.0%
x264 [info]: mb P I16..4: 1.2% 15.9% 1.2% P16..4: 31.2% 32.5% 8.8% 0.8% 0.0% skip: 8.4%
x264 [info]: mb B I16..4: 0.1% 1.3% 0.1% B16..8: 41.8% 21.1% 3.2% direct: 6.6% skip:25.9% L0:44.8% L1:45.9% BI: 9.3%
x264 [info]: 8x8 transform intra:85.7% inter:58.9%
x264 [info]: direct mvs spatial:98.5% temporal:1.5%
x264 [info]: coded y,uvDC,uvAC intra: 89.9% 82.7% 55.5% inter: 34.0% 26.3% 7.5%
x264 [info]: i16 v,h,dc,p: 40% 10% 8% 41%
x264 [info]: i8 v,h,dc,ddl,ddr,vr,hd,vl,hu: 8% 7% 10% 10% 14% 13% 13% 11% 13%
x264 [info]: i4 v,h,dc,ddl,ddr,vr,hd,vl,hu: 11% 8% 6% 8% 15% 14% 14% 11% 12%
x264 [info]: i8c dc,h,v,p: 41% 23% 18% 19%
x264 [info]: Weighted P-Frames: Y:11.8% UV:6.3%
x264 [info]: ref P L0: 42.3% 9.5% 20.6% 7.3% 6.3% 4.2% 4.2% 2.4% 2.5% 0.6% 0.1%
x264 [info]: ref B L0: 67.2% 14.7% 7.3% 4.0% 2.8% 2.4% 1.2% 0.4%
x264 [info]: ref B L1: 91.4% 8.6%
x264 [info]: kb/s:3098.37

Скриншоты

[Цитировать]



Показать сообщения:    

Текущее время: 12-Май 01:33

Часовой пояс: UTC + 6


Вы не можете начинать темы
Вы не можете отвечать на сообщения
Вы не можете редактировать свои сообщения
Вы не можете удалять свои сообщения
Вы не можете голосовать в опросах
Вы не можете прикреплять файлы к сообщениям
Вы не можете скачивать файлы

!ВНИМАНИЕ!
Сайт не предоставляет электронные версии произведений, а занимается лишь коллекционированием и каталогизацией ссылок, присылаемых и публикуемых на форуме нашими читателями. Если вы являетесь правообладателем какого-либо представленного материала и не желаете, чтобы ссылка на него находилась в нашем каталоге, свяжитесь с нами, и мы незамедлительно удалим ее. Файлы для обмена на трекере предоставлены пользователями сайта, и администрация не несет ответственности за их содержание. Просьба не заливать файлы, защищенные авторскими правами, а также файлы нелегального содержания!