***Уважаемые пользователи и гости !!! Сайт переехал на новый домен Torrents-club.info. Просьба изменить ваши закладки! ***
 
[ Сегодня идет свободное скачивание без начисления Download ]


Статистика раздачи
Нет
 
   
 
 
 
 
Пещера / Cave Информация о фильме
Название: Пещера
Оригинальное название: Cave
Год выхода: 2016
Жанр: Триллер, приключения
Режиссер: Хенрик Мартин Дальсбаккен
В ролях: Мэдс Сьёгард Петтерсен, Беньямин Хельстад, Ингар Хельге Гимле
О фильме:
Шарлотта, Адриан и Виктор когда-то вместе служили в одном батальоне. Поэтому они привыкли преодолевать трудности и бросать вызов опасности. Из всей троицы в армии остался лишь Виктор. Но они снова собираются вместе, чтобы преодолеть новую преграду - неизведанную систему пещер. Несколько лет назад там погибли двое финских водолазов. Тело одного из них так и не было найдено. После этого трагического случая пещера была закрыта. Однако троица лучших друзей не обращает на это внимания. Они хотят исследовать пещеру и найти выход на противоположной стороне горы. Их цель - стать первыми кому удастся сделать это и выбраться живыми. Казалось бы, что они все предусмотрели. Но то. с чем им предстоит столкнуть глубоко под землей, повергло их в ужас...

Страна: Норвегия
Студия: FilmBros
Продолжительность: 01:16:50
Перевод: Любительский одноголосый (закадровый) | Хикикающий доктор
Файл
Качество: BDRip 720p
Видео: MPEG-4 AVC, 1280x536, 5324 Кbit/s, 25.000 fps
Звук:
Аудио #01: 48 kHz, AC3, 2.0, 192 Kbps | Любительский одноголосый (закадровый) |
Аудио #02: 48 kHz, AC3, 5.1, 640 kbps | Оригинал |
Субтитры: Английские

MI

General
Unique ID : 186196941681035922556125965031871638678 (0x8C1439FF6C13AA3981DD1F3237446C96)
Complete name : F:VideoCave.2016.BDRip.720p.ExKinoRay.mkv
Format : Matroska
Format version : Version 4 / Version 2
File size : 3.31 GiB
Duration : 1 h 16 min
Overall bit rate : 6 158 kb/s
Encoded date : UTC 2017-01-28 19:20:19
Writing application : mkvmerge v8.3.0 ('Over the Horizon') 64bit
Writing library : libebml v1.3.1 + libmatroska v1.4.2
Video
ID : 1
Format : AVC
Format/Info : Advanced Video Codec
Format profile : High@L4.1
Format settings, CABAC : Yes
Format settings, ReFrames : 12 frames
Codec ID : V_MPEG4/ISO/AVC
Duration : 1 h 16 min
Bit rate : 5 324 kb/s
Width : 1 280 pixels
Height : 536 pixels
Display aspect ratio : 2.40:1
Frame rate mode : Constant
Frame rate : 25.000 FPS
Color space : YUV
Chroma subsampling : 4:2:0
Bit depth : 8 bits
Scan type : Progressive
Bits/(Pixel*Frame) : 0.310
Stream size : 2.86 GiB (86%)
Writing library : x264 core 148 r2744kMod b97ae06
Encoding settings : cabac=1 / ref=12 / deblock=1:-3:-3 / analyse=0x3:0x133 / me=umh / subme=10 / psy=1 / fade_compensate=0.00 / psy_rd=1.00:0.00 / mixed_ref=1 / me_range=24 / chroma_me=1 / trellis=2 / 8x8dct=1 / cqm=0 / deadzone=21,11 / fast_pskip=0 / chroma_qp_offset=-2 / threads=17 / lookahead_threads=4 / sliced_threads=0 / nr=0 / decimate=0 / interlaced=0 / bluray_compat=0 / constrained_intra=0 / bframes=10 / b_pyramid=2 / b_adapt=2 / b_bias=0 / direct=3 / weightb=1 / open_gop=0 / weightp=2 / keyint=250 / keyint_min=25 / scenecut=40 / intra_refresh=0 / rc_lookahead=60 / rc=crf / mbtree=0 / crf=16.0000 / qcomp=0.65 / qpmin=0 / qpmax=69 / qpstep=4 / vbv_maxrate=62500 / vbv_bufsize=78125 / crf_max=0.0 / nal_hrd=none / filler=0 / ip_ratio=1.30 / pb_ratio=1.20 / aq=3:0.80
Language : English
Default : Yes
Forced : No
Color range : Limited
Matrix coefficients : BT.709
Audio #1
ID : 2
Format : AC-3
Format/Info : Audio Coding 3
Mode extension : CM (complete main)
Format settings, Endianness : Big
Codec ID : A_AC3
Duration : 1 h 16 min
Bit rate mode : Constant
Bit rate : 192 kb/s
Channel(s) : 2 channels
Channel positions : Front: L R
Sampling rate : 48.0 kHz
Frame rate : 31.250 FPS (1536 spf)
Bit depth : 16 bits
Compression mode : Lossy
Stream size : 106 MiB (3%)
Title : VO [Хикикающий доктор]
Language : Russian
Default : Yes
Forced : No
Audio #2
ID : 3
Format : AC-3
Format/Info : Audio Coding 3
Mode extension : CM (complete main)
Format settings, Endianness : Big
Codec ID : A_AC3
Duration : 1 h 16 min
Bit rate mode : Constant
Bit rate : 640 kb/s
Channel(s) : 6 channels
Channel positions : Front: L C R, Side: L R, LFE
Sampling rate : 48.0 kHz
Frame rate : 31.250 FPS (1536 spf)
Bit depth : 16 bits
Compression mode : Lossy
Stream size : 352 MiB (10%)
Title : Original
Language : Norwegian
Default : No
Forced : No
Text
ID : 4
Format : UTF-8
Codec ID : S_TEXT/UTF8
Codec ID/Info : UTF-8 Plain Text
Duration : 1 h 11 min
Bit rate : 20 b/s
Count of elements : 465
Stream size : 10.7 KiB (0%)
Title : Full
Language : English
Default : No
Forced : No
Menu
00:00:00.000 : en:00:00:00.000
00:07:51.960 : en:00:07:51.960
00:15:57.960 : en:00:15:57.960
00:27:45.200 : en:00:27:45.200
00:38:22.680 : en:00:38:22.680
00:50:16.040 : en:00:50:16.040
00:57:01.240 : en:00:57:01.240
01:05:58.720 : en:01:05:58.720
01:10:22.160 : en:01:10:22.160
01:13:00.560 : en:01:13:00.560

Скриншоты

[Цитировать]



Показать сообщения:    

Текущее время: 09-Май 06:33

Часовой пояс: UTC + 6


Вы не можете начинать темы
Вы не можете отвечать на сообщения
Вы не можете редактировать свои сообщения
Вы не можете удалять свои сообщения
Вы не можете голосовать в опросах
Вы не можете прикреплять файлы к сообщениям
Вы не можете скачивать файлы

!ВНИМАНИЕ!
Сайт не предоставляет электронные версии произведений, а занимается лишь коллекционированием и каталогизацией ссылок, присылаемых и публикуемых на форуме нашими читателями. Если вы являетесь правообладателем какого-либо представленного материала и не желаете, чтобы ссылка на него находилась в нашем каталоге, свяжитесь с нами, и мы незамедлительно удалим ее. Файлы для обмена на трекере предоставлены пользователями сайта, и администрация не несет ответственности за их содержание. Просьба не заливать файлы, защищенные авторскими правами, а также файлы нелегального содержания!