***Уважаемые пользователи и гости !!! Сайт переехал на новый домен Torrents-club.info. Просьба изменить ваши закладки! ***
 
[ Сегодня идет свободное скачивание без начисления Download ]


Статистика раздачи
Нет
 
   
 
 
 
Белый как снег / Blanc comme neige (2010) BDRip 1080p Название: Белый как снег
Оригинальное название: Blanc comme neige
Год выхода: 2010
Страна: Бельгия, Франция
Студия: Blue Monday Productions, MK2 Productions, Need Productions
Продолжительность: 01:34:18
Жанр: триллер
Режиссер: Кристоф Бланк
В ролях: Франсуа Клюзе, Оливье Гурме, Жонатан Заккаи, Були Ланнерс, Луиз Бургуан, Пертти Койвула, Илкка Койвула, Кай Лехтинен, Саша Кейе, Лаури Ууситало, ...
Перевод:
- Профессиональный (двухголосый, закадровый) НТВ+
- Любительский (двухголосый, закадровый) Сладкая парочка
О фильме: У Максима есть все, чтобы быть счастливым: он возглавляет крупную фирму по продаже дорогих автомобилей, женат на очаровательной молодой девушке и живет на удобной вилле. Все идиллия заканчивается со смертью его компаньона, которого убили преступники. Разумно осознавая, что следующий на очереди он, Максим зовет на помощь своих братьев. Однако их вмешательство превращает дело в полное фиаско, и положение Максима становится все более запутанным и опасным…

Кодек: x264
Качество: BDRip 1080p
Видео: 1920x816, 11000 kbps, 24 fps
Аудио #1: AC-3, 2 ch, 192 kbps (Rus) - DVO НТВ+
Аудио #2: AC-3, 6 ch, 448 kbps (Rus) - DVOL Сладкая парочка
Аудио #3: AC-3, 6 ch, 448 kbps (Fre)
Субтитры: нет

Дополнительная информация

За исходник спасибо - arxivariys

MediaInfo

x264 [info]: frame I:721 Avg QP:18.13 size:180872
x264 [info]: frame P:28020 Avg QP:20.10 size: 91355
x264 [info]: frame B:107063 Avg QP:22.36 size: 47525
x264 [info]: consecutive B-frames: 1.1% 2.0% 9.0% 15.6% 13.9% 49.9% 4.4% 1.0% 2.1% 0.5% 0.4% 0.1% 0.0%
Общее
Уникальный идентификатор : 188035764425392668086478246715607951265 (0x8D765EF56AA91DFBA31EDDB673E727A1)
Полное имя : Белый как снег (Blanc comme neige) 2010 BDRip 1080p.mkv
Формат : Matroska
Версия формата : Version 2
Размер файла : 7,96 Гбайт
Продолжительность : 1 ч. 34 м.
Общий поток : 12,1 Мбит/сек
Дата кодирования : UTC 2017-01-30 14:49:40
Программа кодирования : mkvmerge v4.0.0 ('The Stars were mine') сборка от Jun 6 2010 16:18:42
Библиотека кодирования : libebml v1.0.0 + libmatroska v1.0.0
Видео
Идентификатор : 1
Формат : AVC
Формат/Информация : Advanced Video Codec
Профиль формата : High@L4.1
Параметр CABAC формата : Да
Параметр ReFrames формата : 5 кадров
Идентификатор кодека : V_MPEG4/ISO/AVC
Продолжительность : 1 ч. 34 м.
Битрейт : 11,0 Мбит/сек
Ширина : 1920 пикселей
Высота : 816 пикселей
Соотношение сторон : 2,35:1
Режим частоты кадров : Постоянный
Частота кадров : 24,000 кадра/сек
Цветовое пространство : YUV
Субдискретизация насыщенности : 4:2:0
Битовая глубина : 8 бит
Тип развёртки : Прогрессивная
Бит/(Пиксели*Кадры) : 0.293
Размер потока : 7,09 Гбайт (89%)
Библиотека кодирования : x264 core 146 r2538 121396c
Настройки программы : cabac=1 / ref=5 / deblock=1:-3:-3 / analyse=0x3:0x133 / me=umh / subme=11 / psy=1 / psy_rd=1.00:0.00 / mixed_ref=1 / me_range=32 / chroma_me=1 / trellis=2 / 8x8dct=1 / cqm=0 / deadzone=21,11 / fast_pskip=0 / chroma_qp_offset=-2 / threads=12 / lookahead_threads=2 / sliced_threads=0 / nr=0 / decimate=0 / interlaced=0 / bluray_compat=0 / constrained_intra=0 / bframes=12 / b_pyramid=2 / b_adapt=2 / b_bias=0 / direct=3 / weightb=1 / open_gop=0 / weightp=2 / keyint=240 / keyint_min=24 / scenecut=40 / intra_refresh=0 / rc_lookahead=60 / rc=2pass / mbtree=0 / bitrate=11000 / ratetol=1.0 / qcomp=0.60 / qpmin=0 / qpmax=69 / qpstep=4 / cplxblur=20.0 / qblur=0.5 / vbv_maxrate=50000 / vbv_bufsize=62500 / nal_hrd=none / filler=0 / ip_ratio=1.40 / pb_ratio=1.30 / aq=1:0.80
Язык : French
Default : Нет
Forced : Нет
Аудио #1
Идентификатор : 2
Формат : AC-3
Формат/Информация : Audio Coding 3
Расширение режима : CM (complete main)
Параметр Endianness формата : Big
Идентификатор кодека : A_AC3
Продолжительность : 1 ч. 34 м.
Вид битрейта : Постоянный
Битрейт : 192 Кбит/сек
Каналы : 2 канала
Расположение каналов : Front: L R
Частота : 48,0 КГц
Частота кадров : 31,250 кадров/сек (1536 spf)
Метод сжатия : С потерями
Размер потока : 130 Мбайт (2%)
Заголовок : DVO НТВ+
Язык : Russian
Default : Нет
Forced : Нет
Аудио #2
Идентификатор : 3
Формат : AC-3
Формат/Информация : Audio Coding 3
Расширение режима : CM (complete main)
Параметр Endianness формата : Big
Идентификатор кодека : A_AC3
Продолжительность : 1 ч. 34 м.
Вид битрейта : Постоянный
Битрейт : 448 Кбит/сек
Каналы : 6 каналов
Расположение каналов : Front: L C R, Side: L R, LFE
Частота : 48,0 КГц
Частота кадров : 31,250 кадров/сек (1536 spf)
Метод сжатия : С потерями
Размер потока : 302 Мбайт (4%)
Заголовок : DVOL Сладкая парочка
Язык : Russian
Default : Нет
Forced : Нет
Аудио #3
Идентификатор : 4
Формат : AC-3
Формат/Информация : Audio Coding 3
Расширение режима : CM (complete main)
Параметр Endianness формата : Big
Идентификатор кодека : A_AC3
Продолжительность : 1 ч. 34 м.
Вид битрейта : Постоянный
Битрейт : 448 Кбит/сек
Каналы : 6 каналов
Расположение каналов : Front: L C R, Side: L R, LFE
Частота : 48,0 КГц
Частота кадров : 31,250 кадров/сек (1536 spf)
Метод сжатия : С потерями
Размер потока : 302 Мбайт (4%)
Язык : French
Default : Нет
Forced : Нет

Скриншоты


[Цитировать]



Показать сообщения:    

Текущее время: 08-Окт 04:49

Часовой пояс: UTC + 6


Вы не можете начинать темы
Вы не можете отвечать на сообщения
Вы не можете редактировать свои сообщения
Вы не можете удалять свои сообщения
Вы не можете голосовать в опросах
Вы не можете прикреплять файлы к сообщениям
Вы не можете скачивать файлы

!ВНИМАНИЕ!
Сайт не предоставляет электронные версии произведений, а занимается лишь коллекционированием и каталогизацией ссылок, присылаемых и публикуемых на форуме нашими читателями. Если вы являетесь правообладателем какого-либо представленного материала и не желаете, чтобы ссылка на него находилась в нашем каталоге, свяжитесь с нами, и мы незамедлительно удалим ее. Файлы для обмена на трекере предоставлены пользователями сайта, и администрация не несет ответственности за их содержание. Просьба не заливать файлы, защищенные авторскими правами, а также файлы нелегального содержания!