***Уважаемые пользователи и гости !!! Сайт переехал на новый домен Torrents-club.info. Просьба изменить ваши закладки! ***
 
[ Сегодня идет свободное скачивание без начисления Download ]


Статистика раздачи
Нет
 
   
 
 
 
 
Просто потрясающе / Absolutely Fabulous: The Movie «It's a huge great bloody movie, sweetie!» Год выпуска: 2016
Страна: Великобритания, США
Производство: British Film Company, Fox Searchlight Pictures
Жанр: комедия, криминал
Режиссёр: Мэнди Флетчер
В ролях: Лулу, Гвендолин Кристи, Дженнифер Сондерс, Джоанна Ламли, Джулия Савала, Джейн Хоррокс, Джун Уитфилд, Мо Гаффни, Кристофер Райан
Перевод: Профессиональный (многоголосый, закадровый) [iTunes] + Оригинал (Английский)
Субтитры: Русские форсированные (отдельно)
Описание: Эдина и Пэтси все еще источают гламур и блеск живя той красивой жизнью, к которой они так привыкли. Шоппинг, выпивохинг и клаббинг по всему Лондону, и в самых модных его частях. Обвиненные в инциденте на одном из модных показов, они оказываются в центре медийного шторма. Во избежания преследования папарацци они сбегают (попутно забыв деньги) на очень дорогую Французскую Ривьеру, с целью остаться здесь навсегда.

Формат: AVI
Видео кодек: XviD
Аудио кодек: MP3
Видео: 688x288 (2.40:1), 23.976 fps, XviD 73 ~1013 kb/s, 0.213 bit/pixel
Аудио / RUS: 48 kHz, MP3, 2 ch, ~128.00 kbps avg

Тех. инфо

Общее
Полное имя : D:\BDRemux\Absolutely.Fabulous.The.Movie.2016.BDRip.745MB.MegaPeer\Absolutely.Fabulous.The.Movie.2016.BDRip.745MB.MegaPeer.avi
Формат : AVI
Формат/Информация : Audio Video Interleave
Размер файла : 746 Мбайт
Продолжительность : 1 ч. 30 м.
Общий поток : 1146 Кбит/сек
Видео
Идентификатор : 0
Формат : MPEG-4 Visual
Профиль формата : Advanced Simple@L5
Параметр BVOP формата : 1
Параметр QPel формата : Нет
Параметр GMC формата : Без точки перехода
Параметр матрицы формата : Выборочная
Идентификатор кодека : XVID
Идентификатор кодека/Подсказка : XviD
Продолжительность : 1 ч. 30 м.
Битрейт : 1013 Кбит/сек
Ширина : 688 пикселей
Высота : 288 пикселей
Соотношение сторон : 2,40:1
Частота кадров : 23,976 (24000/1001) кадра/сек
Цветовое пространство : YUV
Субдискретизация насыщенности : 4:2:0
Битовая глубина : 8 бит
Тип развёртки : Прогрессивная
Метод сжатия : С потерями
Бит/(Пиксели*Кадры) : 0.213
Размер потока : 658 Мбайт (88%)
Библиотека кодирования : XviD 73
Аудио
Идентификатор : 1
Формат : MPEG Audio
Версия формата : Version 1
Профиль формата : Layer 3
Режим : Joint stereo
Расширение режима : MS Stereo
Идентификатор кодека : 55
Идентификатор кодека/Подсказка : MP3
Продолжительность : 1 ч. 30 м.
Вид битрейта : Постоянный
Битрейт : 128 Кбит/сек
Каналы : 2 канала
Частота : 48,0 КГц
Метод сжатия : С потерями
Размер потока : 83,2 Мбайт (11%)
Выравнивание : Соединение по промежуткам
Продолжительность промежутка : 167 мс. (4,00 видеокадра)
Время предзагрузки промежутка : 216 мс.
Заголовок : iTunes
Библиотека кодирования : LAME3.99r
Настройки программы : -m j -V 4 -q 2 -lowpass 17 -b 128

[Цитировать]



Показать сообщения:    

Текущее время: 12-Май 02:34

Часовой пояс: UTC + 6


Вы не можете начинать темы
Вы не можете отвечать на сообщения
Вы не можете редактировать свои сообщения
Вы не можете удалять свои сообщения
Вы не можете голосовать в опросах
Вы не можете прикреплять файлы к сообщениям
Вы не можете скачивать файлы

!ВНИМАНИЕ!
Сайт не предоставляет электронные версии произведений, а занимается лишь коллекционированием и каталогизацией ссылок, присылаемых и публикуемых на форуме нашими читателями. Если вы являетесь правообладателем какого-либо представленного материала и не желаете, чтобы ссылка на него находилась в нашем каталоге, свяжитесь с нами, и мы незамедлительно удалим ее. Файлы для обмена на трекере предоставлены пользователями сайта, и администрация не несет ответственности за их содержание. Просьба не заливать файлы, защищенные авторскими правами, а также файлы нелегального содержания!