***Уважаемые пользователи и гости !!! Сайт переехал на новый домен Torrents-club.info. Просьба изменить ваши закладки! ***
 
[ Сегодня идет свободное скачивание без начисления Download ]


Статистика раздачи
Нет
 
   
 
 
 
 
Адаптация Жанр: комедия
Страна: Россия, «ГудСториМедиа» (Good Story Media)
Год выпуска: 2017
Режиссер: Фёдор Стуков
В ролях: Леонид Бичевин, Артур Бесчастный, Евгения Брик, Анастасия Дубровская, Юрий Стоянов, Александр Ильин, Александр Назаров, Нелли Уварова, Алексей Базанов, Андрей Бурковский

Сюжет фильма: Американского шпиона засылают в Газпром и ставят перед ним нереальную задачу — стать русским. Под видом русского инженера Олега Меньшова он внедряется в региональное подразделение крупной российской газодобывающей компании в городе Ноябрьск, чтобы получить секретную информацию о новейшей разработке российских ученых в области добычи газа. В идеальной подготовке шпиона есть только один пробел: он совершенно не понимает наш менталитет, что ставит под угрозу проведение всей операции. В ходе своей миссии герой знакомится с простым, но только на первый взгляд, кубанским парнем по имени Валера и местной красавицей Мариной, к которой у него постепенно возникают чувства. Американскому шпиону придется разрываться между дружбой, любовью и своей миссией. И с каждым днем выбор будет становиться все сложнее…
Личная оценка: 10
Продолжительность: 17 х ~ 00:25:00
Качество видео: SATRip
Формат: AVI
Перевод: Оригинал
Субтитры: Нет
Реклама: Отсутствует
Видео: кодек: MPEG-4 Visual, размер кадра: 720 x 400, 23.976 битрейт: ~1 700 кб/с
Аудио#1: язык: Русский, перевод: Оригинал, кодек: AC3, 2 ch, битрейт: 192 кб/с

Скриншоты


Информация по видеофайлу

General
Complete name                            : D:\Видео-раздачи\Adaptacija.01.SATRip.avi
Format                                   : AVI
Format/Info                              : Audio Video Interleave
File size                                : 339 MiB
Duration                                 : 24mn 24s
Overall bit rate                         : 1 942 Kbps
Video
ID                                       : 0
Format                                   : MPEG-4 Visual
Format profile                           : Advanced Simple@L5
Format settings, BVOP                    : 2
Format settings, QPel                    : No
Format settings, GMC                     : No warppoints
Format settings, Matrix                  : Default (H.263)
Codec ID                                 : XVID
Codec ID/Hint                            : XviD
Duration                                 : 24mn 24s
Bit rate                                 : 1 800 Kbps
Width                                    : 720 pixels
Height                                   : 400 pixels
Display aspect ratio                     : 16:9
Frame rate                               : 25.000 fps
Color space                              : YUV
Chroma subsampling                       : 4:2:0
Bit depth                                : 8 bits
Scan type                                : Progressive
Compression mode                         : Lossy
Bits/(Pixel*Frame)                       : 0.250
Stream size                              : 314 MiB (93%)
Writing library                          : XviD 1.2.1 (UTC 2008-12-04)
Audio
ID                                       : 1
Format                                   : MPEG Audio
Format version                           : Version 1
Format profile                           : Layer 3
Mode                                     : Joint stereo
Mode extension                           : MS Stereo
Codec ID                                 : 55
Codec ID/Hint                            : MP3
Duration                                 : 24mn 24s
Bit rate mode                            : Constant
Bit rate                                 : 128 Kbps
Channel(s)                               : 2 channels
Sampling rate                            : 48.0 KHz
Compression mode                         : Lossy
Stream size                              : 22.3 MiB (7%)
Alignment                                : Aligned on interleaves
Interleave, duration                     : 24 ms (0.60 video frame)
Writing library                          : LAME3.99r
Encoding settings                        : -m j -V 4 -q 9 -lowpass 17 -b 128
Внимание! Раздача ведётся путём добавления новых серий.07.03.2017 добавлена заключительная 17 серия. Релиз залит полностью.

Как добавить новые серии

Когда раздача ведётся путём добавления новых серий, при каждом добавлении создётся новый торрент. Чтобы начать докачку новой серии, пользователям необходимо сделать следующее:
(1) остановить скачивание,
(2) удалить старый торрент у себя из клиента (старые серии удалять не надо),
(3) скачать новый торрент и запустить его у себя в клиенте вместо старого, при этом указать клиенту путь в старую папку, куда и должно происходить скачивание новых серий.
Ваш клиент при этом должен произвести хеширование (проверку) старой папки (если не производит сам - помогите ему сделать это), и будет докачивать только те серии, которых у вас ещё нет. Старые серии при этом не удаляются, а продолжают раздаваться!
Eсли вы уже удалили старые серии, то предотвратить повторную закачку старых серий можно, отжав галочку в соответсвующих местах при запуске нового торрента. По возможности, желательно не удалять старые серии как можно дольше, чтобы релизёр не столько продолжал раздавать старые серии, а смог сконцентрироваться на новых.


Последний раз редактировалось: D-r Woland_kz (2017-03-07 20:37), всего редактировалось 12 раз(а)

[Цитировать]

Добавлена 5 серия. Перехешируйте торрент-фаил.

[Цитировать]

Добавлена 6 серия, перехешируйте торрент-файл

[Цитировать]

Добавлена 7 серия, перехешируйте торрент-файл

[Цитировать]

Добавлена 8 серия, перехешируйте торрент-файл

[Цитировать]

Добавлена 9 серия, перехешируйте торрент-файл

[Цитировать]

Добавлены 10 - 11 серии, перехешируйте торрент-файл

[Цитировать]

Добавлена 12 серия, перехешируйте торрент-файл


Последний раз редактировалось: D-r Woland_kz (2017-03-01 07:36), всего редактировалось 1 раз

[Цитировать]

12 серия - 00 -04 - 20 biggrin biggrinулётная серия

[Цитировать]

Добавлена 13 серия, перехешируйте торрент-файл

[Цитировать]

Добавлены 14 - 15 серии, перехешируйте торрент-файл

[Цитировать]

Добавлена 16 серия, перехешируйте торрент-файл

[Цитировать]

Добавлена 17 заключительная серия сезона, перехешируйте торрент-файл. Релиз залит полностью, приятного просмотра.

[Цитировать]

Топик был перенесен из форума Новинки отечественных сериалов в форум Отечественные сериалы
Winchester



Показать сообщения:    

Текущее время: 07-Май 13:49

Часовой пояс: UTC + 6


Вы не можете начинать темы
Вы не можете отвечать на сообщения
Вы не можете редактировать свои сообщения
Вы не можете удалять свои сообщения
Вы не можете голосовать в опросах
Вы не можете прикреплять файлы к сообщениям
Вы не можете скачивать файлы

!ВНИМАНИЕ!
Сайт не предоставляет электронные версии произведений, а занимается лишь коллекционированием и каталогизацией ссылок, присылаемых и публикуемых на форуме нашими читателями. Если вы являетесь правообладателем какого-либо представленного материала и не желаете, чтобы ссылка на него находилась в нашем каталоге, свяжитесь с нами, и мы незамедлительно удалим ее. Файлы для обмена на трекере предоставлены пользователями сайта, и администрация не несет ответственности за их содержание. Просьба не заливать файлы, защищенные авторскими правами, а также файлы нелегального содержания!