***Уважаемые пользователи и гости !!! Сайт переехал на новый домен Torrents-club.info. Просьба изменить ваши закладки! ***
 
[ Сегодня идет свободное скачивание без начисления Download ]


Статистика раздачи
Нет
 
   
 
 
 
По соображениям совести / Hacksaw Ridge (2016) WEB-DLRip
«Based on the incredible true story»
Страна: Австралия, США
Год выпуска: 2016
Жанр: Драма, военный, история
Перевод: Дублированный [Чистый звук]
Субтитры: Нет
Продолжительность: 02:20:27-Режиссер: Мэл Гибсон-В ролях: Эндрю Гарфилд, Сэм Уортингтон, Тереза Палмер, Люк Брейси, Винс Вон, Хьюго Уивинг, Рэйчел Гриффитс, Натаниэль Бузолич, Ричард Роксбург, Фирэсс Дирани-Сюжет фильма: Медик Американской армии времён Второй Мировой войны Дезмонд Досс, который служил во время битвы за Окинаву, отказывается убивать людей и становится первым идейным уклонистом в американской истории, удостоенным Медали Почёта.- -Формат: AVI
Качество: WEB-DLRip-Видео: кодек: XviD, размер кадра: 720x304, битрейт: 1 825 Кбит/сек frame rate: 23.976 кадра/сек
Аудио:язык: Русский, кодек: AC-3, число каналов: 2 канала, битрейт: 256 кб/с [DUB] -Релиз с рекламой!

MI

General
Complete name                  : Hacksaw.Ridge.2016.D.WEB-DLRip.21OOMB.avi
Format                         : AVI
Format/Info                    : Audio Video Interleave
Format profile                 : OpenDML
File size                      : 2.05 GiB
Duration                       : 2h 20mn
Overall bit rate               : 2 093 Kbps
Writing application            : VirtualDubMod 1.5.10.2 (build 2540/release)
Writing library                : VirtualDubMod build 2540/release
Video
ID                             : 0
Format                         : MPEG-4 Visual
Format profile                 : Advanced Simple@L5
Format settings, BVOP          : 2
Format settings, QPel          : No
Format settings, GMC           : No warppoints
Format settings, Matrix        : Default (MPEG)
Codec ID                       : XVID
Codec ID/Hint                  : XviD
Duration                       : 2h 20mn
Bit rate                       : 1 825 Kbps
Width                          : 720 pixels
Height                         : 304 pixels
Display aspect ratio           : 2.35:1
Frame rate                     : 23.976 (24000/1001) fps
Color space                    : YUV
Chroma subsampling             : 4:2:0
Bit depth                      : 8 bits
Scan type                      : Progressive
Compression mode               : Lossy
Bits/(Pixel*Frame)             : 0.348
Stream size                    : 1.79 GiB (87%)
Writing library                : XviD 1.2.1 (UTC 2008-12-04)
Audio
ID                             : 1
Format                         : AC-3
Format/Info                    : Audio Coding 3
Mode extension                 : CM (complete main)
Format settings, Endianness    : Big
Codec ID                       : 2000
Duration                       : 2h 20mn
Bit rate mode                  : Constant
Bit rate                       : 256 Kbps
Channel(s)                     : 2 channels
Channel positions              : Front: L R
Sampling rate                  : 48.0 KHz
Frame rate                     : 31.250 fps (1536 spf)
Compression mode               : Lossy
Stream size                    : 257 MiB (12%)
Alignment                      : Split accross interleaves
Interleave, duration           : 42 ms (1.00 video frame)
Interleave, preload duration   : 500 ms
Скриншоты:

[Цитировать]



Показать сообщения:    

Текущее время: 07-Май 12:36

Часовой пояс: UTC + 6


Вы не можете начинать темы
Вы не можете отвечать на сообщения
Вы не можете редактировать свои сообщения
Вы не можете удалять свои сообщения
Вы не можете голосовать в опросах
Вы не можете прикреплять файлы к сообщениям
Вы не можете скачивать файлы

!ВНИМАНИЕ!
Сайт не предоставляет электронные версии произведений, а занимается лишь коллекционированием и каталогизацией ссылок, присылаемых и публикуемых на форуме нашими читателями. Если вы являетесь правообладателем какого-либо представленного материала и не желаете, чтобы ссылка на него находилась в нашем каталоге, свяжитесь с нами, и мы незамедлительно удалим ее. Файлы для обмена на трекере предоставлены пользователями сайта, и администрация не несет ответственности за их содержание. Просьба не заливать файлы, защищенные авторскими правами, а также файлы нелегального содержания!