***Уважаемые пользователи и гости !!! Сайт переехал на новый домен Torrents-club.info. Просьба изменить ваши закладки! ***
 
[ Сегодня идет свободное скачивание без начисления Download ]


Статистика раздачи
Скачал: [ 3 ]
 
   
 
 
 
 
Дикость 3: Неограненные алмазы / Wild Things: Diamonds in the Rough Название: Дикость 3: Неограненные алмазы
Оригинальное название: Wild Things: Diamonds in the Rough
Год выхода: 2005
Страна: США
Студия: Mandalay Pictures, Lightning Entertainment, Mainline Releasing
Продолжительность: 01:26:49
Жанр: триллер, драма, криминал, детектив
Режиссер: Джей Лоуи
В ролях: Сера Д’Лэйн, Брэд Джонсон, Майкл Мэнтелл, Сандра МакКой, Клэр Коффи, Ван Эпперсон, Рон Мелендес, Дина Мейер, Никки Гриффин, Елена Мария Гарсиа, ...
Перевод: Профессиональный (двухголосый, закадровый) с DVD от «Columbia/Sony»
О фильме: Красивая и богатая Мэри Клиффорд хочет от жизни многого. Когда ей исполнится 18, она унаследует состояние своей покойной матери и еще пару безупречных бриллиантов.
Ее отчима, Джея Клиффорда, обвиняют в изнасиловании Елены, девушки с весьма сомнительной репутацией. Мэри должна принять решение, использовать ли ей бриллианты для того, чтобы помочь отчиму выпутаться из этой истории.
Расследование поручено агенту ФБР Кристен Ричардс. Она должна выяснить, что скрывается за всем происходящим и кому достанутся эти бриллианты…

Кодек: x264
Качество: WEBRip 1080p
Видео: 1920x1080, 12500 kbps, 23,976 fps
Аудио #1: AC-3, 6 ch, 448 kbps (Rus) - DVO R5 «Columbia/Sony»
Аудио #2: AC-3, 6 ch, 640 kbps (Eng)
Субтитры: русские, английские

MediaInfo

Общее
Уникальный идентификатор : 192015344142841374396874180881114399876 (0x9074CF632647F15B9191E2A5FDB30484)
Полное имя : Дикость 3 Неограненные алмазы (Wild Things Diamonds in the Rough) 2005 WEBRip 1080p.mkv
Формат : Matroska
Версия формата : Version 2
Размер файла : 8,38 Гбайт
Продолжительность : 1 ч. 26 м.
Режим общего битрейта : Переменный
Общий поток : 13,8 Мбит/сек
Дата кодирования : UTC 2017-02-26 06:52:08
Программа кодирования : mkvmerge v4.0.0 ('The Stars were mine') сборка от Jun 6 2010 16:18:42
Библиотека кодирования : libebml v1.0.0 + libmatroska v1.0.0
Видео
Идентификатор : 1
Формат : AVC
Формат/Информация : Advanced Video Codec
Профиль формата : High@L4
Параметр CABAC формата : Да
Параметр ReFrames формата : 4 кадра
Идентификатор кодека : V_MPEG4/ISO/AVC
Продолжительность : 1 ч. 26 м.
Вид битрейта : Переменный
Битрейт : 12,5 Мбит/сек
Максимальный битрейт : 15,0 Мбит/сек
Ширина : 1920 пикселей
Высота : 1080 пикселей
Соотношение сторон : 16:9
Режим частоты кадров : Постоянный
Частота кадров : 23,976 (24000/1001) кадра/сек
Цветовое пространство : YUV
Субдискретизация насыщенности : 4:2:0
Битовая глубина : 8 бит
Тип развёртки : Прогрессивная
Бит/(Пиксели*Кадры) : 0.251
Размер потока : 7,55 Гбайт (90%)
Библиотека кодирования : x264 core 148 r2623 d5b2374
Настройки программы : cabac=1 / ref=4 / deblock=1:-1:-1 / analyse=0x3:0x133 / me=umh / subme=9 / psy=1 / psy_rd=1.00:0.15 / mixed_ref=1 / me_range=24 / chroma_me=1 / trellis=2 / 8x8dct=1 / cqm=0 / deadzone=21,11 / fast_pskip=1 / chroma_qp_offset=-3 / threads=34 / lookahead_threads=5 / sliced_threads=0 / nr=150 / decimate=1 / interlaced=0 / bluray_compat=0 / constrained_intra=0 / bframes=8 / b_pyramid=2 / b_adapt=2 / b_bias=0 / direct=3 / weightb=1 / open_gop=0 / weightp=2 / keyint=120 / keyint_min=61 / scenecut=0 / intra_refresh=0 / rc_lookahead=120 / rc=crf / mbtree=1 / crf=18.0 / qcomp=0.60 / qpmin=0 / qpmax=69 / qpstep=4 / vbv_maxrate=15000 / vbv_bufsize=31250 / crf_max=0.0 / nal_hrd=vbr / filler=0 / ip_ratio=1.40 / aq=3:1.00
Язык : English
Default : Нет
Forced : Нет
Цветовой диапазон : Limited
Основные цвета : BT.709
Характеристики трансфера : BT.709
Коэффициенты матрицы : BT.709
Аудио #1
Идентификатор : 2
Формат : AC-3
Формат/Информация : Audio Coding 3
Расширение режима : CM (complete main)
Параметр Endianness формата : Big
Идентификатор кодека : A_AC3
Продолжительность : 1 ч. 26 м.
Вид битрейта : Постоянный
Битрейт : 448 Кбит/сек
Каналы : 6 каналов
Расположение каналов : Front: L C R, Side: L R, LFE
Частота : 48,0 КГц
Частота кадров : 31,250 кадров/сек (1536 spf)
Метод сжатия : С потерями
Размер потока : 278 Мбайт (3%)
Заголовок : DVO R5 «Columbia/Sony»
Язык : Russian
Default : Нет
Forced : Нет
Аудио #2
Идентификатор : 3
Формат : AC-3
Формат/Информация : Audio Coding 3
Расширение режима : CM (complete main)
Параметр Endianness формата : Big
Идентификатор кодека : A_AC3
Продолжительность : 1 ч. 26 м.
Вид битрейта : Постоянный
Битрейт : 640 Кбит/сек
Каналы : 6 каналов
Расположение каналов : Front: L C R, Side: L R, LFE
Частота : 48,0 КГц
Частота кадров : 31,250 кадров/сек (1536 spf)
Метод сжатия : С потерями
Размер потока : 397 Мбайт (5%)
Язык : English
Default : Нет
Forced : Нет
Текст #1
Идентификатор : 4
Формат : UTF-8
Идентификатор кодека : S_TEXT/UTF8
Идентификатор кодека/Информация : UTF-8 Plain Text
Язык : Russian
Default : Нет
Forced : Нет
Текст #2
Идентификатор : 5
Формат : UTF-8
Идентификатор кодека : S_TEXT/UTF8
Идентификатор кодека/Информация : UTF-8 Plain Text
Язык : English
Default : Нет
Forced : Нет

Скриншоты


[Цитировать]



Показать сообщения:    

Текущее время: 13-Апр 20:06

Часовой пояс: UTC + 6


Вы не можете начинать темы
Вы не можете отвечать на сообщения
Вы не можете редактировать свои сообщения
Вы не можете удалять свои сообщения
Вы не можете голосовать в опросах
Вы не можете прикреплять файлы к сообщениям
Вы не можете скачивать файлы

!ВНИМАНИЕ!
Сайт не предоставляет электронные версии произведений, а занимается лишь коллекционированием и каталогизацией ссылок, присылаемых и публикуемых на форуме нашими читателями. Если вы являетесь правообладателем какого-либо представленного материала и не желаете, чтобы ссылка на него находилась в нашем каталоге, свяжитесь с нами, и мы незамедлительно удалим ее. Файлы для обмена на трекере предоставлены пользователями сайта, и администрация не несет ответственности за их содержание. Просьба не заливать файлы, защищенные авторскими правами, а также файлы нелегального содержания!