***Уважаемые пользователи и гости !!! Сайт переехал на новый домен Torrents-club.info. Просьба изменить ваши закладки! ***
 
[ Сегодня идет свободное скачивание без начисления Download ]


Статистика раздачи
Скачал: [ 1 ]
 
   
 
 
 
 
Форрест Гамп / Forrest Gump (1994) BDRip-AVC - Производство: США
Жанр: Драма, Мелодрама, Комедия
Режиссер: Роберт Земекис
Актеры: Том Хэнкс, Робин Райт, Гэри Синиз, Майкелти Уильямсон, Салли Филд, Ребекка Уильямс, Майкл Коннер Хэмпфри, Хэйли Джоэл Осмент, Харольд Дж. Хертэм, Джордж Келли
Описание:
От лица главного героя Форреста Гампа, слабоумного безобидного человека с благородным и открытым сердцем, рассказывается история его необыкновенной жизни.
Фантастическим образом превращается он в известного футболиста, героя войны, преуспевающего бизнесмена. Он становится миллиардером, но остается таким же бесхитростным, глупым и добрым. Форреста ждет постоянный успех во всем, а он любит девочку, с которой дружил в детстве, но взаимность приходит слишком поздно.

Возраст: 12+ (зрителям, достигшим 12 лет)
Рейтинг MPAA: PG-13 (детям до 13 лет просмотр нежелателен)
Продолжительность: 2:22:09
Качество видео: BDRip-AVC [sample]
Перевод: Многоголосый закадровый
Субтитры: Отсутствуют
Видео: HEVC/H.265, 1920x816, ~23.976 fps, 8101 Kbps HEVC(Main@L4.1@High) 8bit
Аудио 1: Русский, AAC, 6 ch, 279 Kbps, 48,0 KHz (MVO, Позитив-мультимедиа)
Аудио 2: Русский, AAC, 6 ch, 279 Kbps, 48,0 KHz (AVO, Гаврилов)

Mediainfo:

Общее
Уникальный идентификатор : 198743585909125622230604425399985435520 (0x95849F5164EFCFD1A27D0ADBDCF2F380)
Полное имя : I:\HEVC 2\Forrest\Forrest Gump_1994_BDRip_1080p_[HEVC].mkv
Формат : Matroska
Версия формата : Version 4 / Version 2
Размер файла : 8,60 Гбайт
Продолжительность : 2 ч. 22 м.
Общий поток : 8663 Кбит/сек
Дата кодирования : UTC 2017-06-23 15:02:29
Программа кодирования : mkvmerge v9.7.1 ('Pandemonium') 64bit
Библиотека кодирования : libebml v1.3.4 + libmatroska v1.4.5
Обложка : Yes
Attachments : cover.png / CronosPro-SemiboldIt.ttf / CronosPro-Bold.ttf / CronosPro-Semibold.ttf
Видео
Идентификатор : 1
Формат : HEVC
Формат/Информация : High Efficiency Video Coding
Профиль формата : Main@L4.1@High
Идентификатор кодека : V_MPEGH/ISO/HEVC
Продолжительность : 2 ч. 22 м.
Битрейт : 8101 Кбит/сек
Ширина : 1920 пикселей
Высота : 816 пикселей
Соотношение сторон : 2,35:1
Режим частоты кадров : Постоянный
Частота кадров : 23,976 (24000/1001) кадра/сек
Цветовое пространство : YUV
Субдискретизация насыщенности : 4:2:0
Битовая глубина : 8 бит
Бит/(Пиксели*Кадры) : 0.216
Размер потока : 8,04 Гбайт (94%)
Библиотека кодирования : x265 2.4+6-fd01abfc7898:[Windows][GCC 6.3.0][64 bit] 8bit+10bit+12bit
Настройки программы : cpuid=1173503 / frame-threads=3 / numa-pools=8 / wpp / no-pmode / no-pme / no-psnr / no-ssim / log-level=2 / input-csp=1 / input-res=1920x816 / interlace=0 / total-frames=0 / level-idc=41 / high-tier=1 / uhd-bd=0 / ref=4 / no-allow-non-conformance / no-repeat-headers / annexb / no-aud / no-hrd / info / hash=0 / no-temporal-layers / open-gop / min-keyint=23 / keyint=240 / bframes=10 / b-adapt=2 / b-pyramid / bframe-bias=0 / rc-lookahead=40 / lookahead-slices=4 / scenecut=40 / no-intra-refresh / ctu=64 / min-cu-size=8 / rect / no-amp / max-tu-size=32 / tu-inter-depth=3 / tu-intra-depth=3 / limit-tu=0 / rdoq-level=2 / dynamic-rd=0.00 / no-ssim-rd / signhide / no-tskip / nr-intra=0 / nr-inter=0 / no-constrained-intra / strong-intra-smoothing / max-merge=3 / limit-refs=3 / limit-modes / me=3 / subme=3 / merange=32 / temporal-mvp / weightp / weightb / no-analyze-src-pics / deblock=-3:-3 / no-sao / no-sao-non-deblock / rd=4 / no-early-skip / rskip / no-fast-intra / no-tskip-fast / no-cu-lossless / no-b-intra / rdpenalty=0 / psy-rd=2.00 / psy-rdoq=2.00 / no-rd-refine / analysis-mode=0 / no-lossless / cbqpoffs=0 / crqpoffs=0 / rc=crf / crf=20.0 / qcomp=0.60 / qpstep=4 / stats-write=0 / stats-read=0 / vbv-maxrate=50000 / vbv-bufsize=50000 / vbv-init=0.9 / crf-max=0.0 / crf-min=0.0 / ipratio=1.40 / pbratio=1.30 / aq-mode=3 / aq-strength=0.90 / cutree / zone-count=1 / zones: / start-frame=194750 / end-frame=204501 / qp=35 / no-strict-cbr / qg-size=32 / no-rc-grain / qpmax=69 / qpmin=0 / sar=0 / overscan=0 / videoformat=5 / range=0 / colorprim=2 / transfer=2 / colormatrix=1 / chromaloc=0 / display-window=0 / max-cll=0,0 / min-luma=0 / max-luma=255 / log2-max-poc-lsb=8 / vui-timing-info / vui-hrd-info / slices=1 / opt-qp-pps / opt-ref-list-length-pps / no-multi-pass-opt-rps / scenecut-bias=0.05 / no-opt-cu-delta-qp / aq-motion / no-hdr / no-hdr-opt / no-dhdr10-opt / refine-level=5 / no-limit-sao
Default : Да
Forced : Да
Цветовой диапазон : Limited
Коэффициенты матрицы : BT.709
Аудио #1
Идентификатор : 2
Формат : AAC
Формат/Информация : Advanced Audio Codec
Профиль формата : LC
Идентификатор кодека : A_AAC
Продолжительность : 2 ч. 22 м.
Битрейт : 279 Кбит/сек
Каналы : 6 каналов
Расположение каналов : Front: L C R, Side: L R, LFE
Частота : 48,0 КГц
Частота кадров : 46,875 кадров/сек (1024 spf)
Метод сжатия : С потерями
Задержка видео : 20 мс.
Размер потока : 284 Мбайт (3%)
Заголовок : Позитив-мультимедиа
Язык : Russian
Default : Да
Forced : Нет
Аудио #2
Идентификатор : 3
Формат : AAC
Формат/Информация : Advanced Audio Codec
Профиль формата : LC
Идентификатор кодека : A_AAC
Продолжительность : 2 ч. 22 м.
Битрейт : 279 Кбит/сек
Каналы : 6 каналов
Расположение каналов : Front: L C R, Side: L R, LFE
Частота : 48,0 КГц
Частота кадров : 46,875 кадров/сек (1024 spf)
Метод сжатия : С потерями
Задержка видео : 20 мс.
Размер потока : 284 Мбайт (3%)
Заголовок : Гаврилов
Язык : Russian
Default : Нет
Forced : Нет
Меню
00:00:00.000 : :1. I'm Forest...Forest Gump
00:06:43.569 : :2. Mama
00:12:24.577 : :3. Like Peas and Carrots
00:19:56.945 : :4. Run Forest Run!
00:31:13.705 : :5. Private Gump
00:40:40.187 : :6. Lieutenant Dan
00:44:18.113 : :7. My Best Good Friend
00:56:34.474 : :8. Wounded In the Buttocks
01:03:32.266 : :9. You're My Girl
01:13:34.076 : :10. National Celebrity
01:17:02.826 : :11. Happy New Year
01:23:52.277 : :12. Shrimp Boat Captain
01:34:59.944 : :13. Bubba Gump
01:38:55.596 : :14. Mama's Trip To Heaven
01:43:52.893 : :15. Jenny Comes Home
01:51:28.306 : :16. A Little Run
01:58:54.710 : :17. Forrest Meets Forrest
02:04:48.564 : :18. Beloved Mother, Wife and Friend
02:15:25.200 : :19. Credits

avdump

avdump\Forrest Gump_1994_BDRip_1080p_[HEVC].mkv
Duration: 02:22:09 (8529.4)
Track #1: video
lang: und (1)
codc: V_MPEGH/ISO/HEVC -> Unknown (1)
reso: 1920x816 -> Unknown (aka not common)
fram: 23.976 fps
rate: 8101 kbps (8101.03)
dura: 02:22:09 (8529.35)
size: 8.04 GB (8637069944)
Track #2: audio (￐゚￐ᄒ￐ᄋ￐ᄌ￑ツ￐ᄌ￐ᄇ-￐ᄐ￑テ￐ᄏ￑フ￑ツ￐ᄌ￐ᄐ￐ᄉ￐ᄡ￐ᄌ￐ᄚ)
lang: rus -> Russian (15)
codc: A_AAC -> AAC (9)
chan: 6 -> 5.1 Surround
samp: 48000 Hz
rate: 280 kbps (279.59)
dura: 02:22:09 (8529.32)
size: 284.28 MB (298089836)
Track #3: audio (￐モ￐ᄚ￐ᄇ￑タ￐ᄌ￐ᄏ￐ᄒ￐ᄇ)
lang: rus -> Russian (15)
codc: A_AAC -> AAC (9)
chan: 6 -> 5.1 Surround
samp: 48000 Hz
rate: 280 kbps (279.62)
dura: 02:22:09 (8529.32)
size: 284.31 MB (298121719)
Sizes: (check sanity)
disk: 8.60 GB (9236377892)
atts: 637.54 KB (652839)
trac: 613.54 MB (643346907) [based on track size]
bitr: 8.60 GB (9233283393) [based on bitrate]
tdif: 8.00 GB (8592378146) 93.02%
bdif: 2.33 MB (2441659) 0.02%
Скриншоты:

[Цитировать]



Показать сообщения:    

Текущее время: 20-Сен 03:00

Часовой пояс: UTC + 6


Вы не можете начинать темы
Вы не можете отвечать на сообщения
Вы не можете редактировать свои сообщения
Вы не можете удалять свои сообщения
Вы не можете голосовать в опросах
Вы не можете прикреплять файлы к сообщениям
Вы не можете скачивать файлы

!ВНИМАНИЕ!
Сайт не предоставляет электронные версии произведений, а занимается лишь коллекционированием и каталогизацией ссылок, присылаемых и публикуемых на форуме нашими читателями. Если вы являетесь правообладателем какого-либо представленного материала и не желаете, чтобы ссылка на него находилась в нашем каталоге, свяжитесь с нами, и мы незамедлительно удалим ее. Файлы для обмена на трекере предоставлены пользователями сайта, и администрация не несет ответственности за их содержание. Просьба не заливать файлы, защищенные авторскими правами, а также файлы нелегального содержания!