***Уважаемые пользователи и гости !!! Сайт переехал на новый домен Torrents-club.info. Просьба изменить ваши закладки! ***
 
[ Сегодня идет свободное скачивание без начисления Download ]


Статистика раздачи
Скачал: [ 1 ]
 
   
 
 
 
 
Демон внутри / Вскрытие Джейн Доу / The Autopsy of Jane Doe (2016) BDRip 1080p Информация о фильме
Название: Демон внутри (Вскрытие Джейн Доу)
Оригинальное название: The Autopsy of Jane Doe
Год выпуска: 2016
Жанр: Ужасы
Режиссер: Андре Овредал
В ролях: Эмиль Хирш, Брайан Кокс, Офелия Ловибонд, Майкл МакЭлхаттон, Олуэн Катрин Келли, Паркер Сойерс, Джейн Перри, Ив О’Хара
О фильме:
Тилдены. Морг и крематорий. Вот уже третье поколение Тилдены исправно выполняют свою работу. "Если взялись за дело, то выполняем его до конца!" Именно так звучит девиз этой небольшой семейной фирмы. Старший Тилден помогает полиции раскрывать преступления, используя свои обширные знания и опыт. Однажды, давний друг Тильманов, инспектор Берг, привозит в морг тело девушки, личность которой невозможно установить. Так же он просит провести вскрытие до утра следующего дня. Отец с сыном принимаются за работу...

Страна: Великобритания
Студия: 42, IM Global, Impostor Pictures
Продолжительность: 01:26:22
Перевод: Профессиональный (многоголосый, закадровый) | iTunes
Файл
Формат: MKV, BDRip 1080p
Видео: MPEG-4 AVC, 8600 Кбит/с, 1920x800
Aудио#1: [RUS] AC3 | 48 KHz | 5.1 (Front: L С R Side: L R) + LFE | ~384 kbps
Aудио#2: [ENG] AC3 | 48 KHz | 5.1 (Front: L С R Side: L R) + LFE | ~448 kbps
Субтитры: русские (полные), английские (полные)

Скриншоты


МИ

Вид битрейта : Постоянный
Битрейт : 384 Кбит/сек
Каналы : 6 каналов
Расположение каналов : Front: L C R, Side: L R, LFE
Частота : 48,0 КГц
Частота кадров : 31,250 кадров/сек (1536 spf)
Метод сжатия : С потерями
Размер потока : 238 Мбайт (4%)
Язык : Russian
Default : Да
Forced : Нет
Аудио #2
Идентификатор : 3
Формат : AC-3
Формат/Информация : Audio Coding 3
Расширение режима : CM (complete main)
Параметр Endianness формата : Big
Идентификатор кодека : A_AC3
Продолжительность : 1 ч. 26 м.
Вид битрейта : Постоянный
Битрейт : 448 Кбит/сек
Каналы : 6 каналов
Расположение каналов : Front: L C R, Side: L R, LFE
Частота : 48,0 КГц
Частота кадров : 31,250 кадров/сек (1536 spf)
Метод сжатия : С потерями
Размер потока : 278 Мбайт (5%)
Язык : English
Default : Нет
Forced : Нет
Текст #1
Идентификатор : 4
Формат : UTF-8
Идентификатор кодека : S_TEXT/UTF8
Идентификатор кодека/Информация : UTF-8 Plain Text
Язык : Russian
Default : Нет
Forced : Нет
Текст #2
Идентификатор : 5
Формат : UTF-8
Идентификатор кодека : S_TEXT/UTF8
Идентификатор кодека/Информация : UTF-8 Plain Text
Язык : English
Default : Нет
Forced : Нет
Меню
00:00:00.000 : en:00:00:00.000
00:15:18.417 : en:00:15:18.417
00:26:51.608 : en:00:26:51.608
00:43:47.625 : en:00:43:47.625
00:55:10.806 : en:00:55:10.806
01:06:08.965 : en:01:06:08.965
01:13:33.199 : en:01:13:33.199
01:21:44.899 : en:01:21:44.899
01:26:26.430 : en:01:26:26.430

[Цитировать]

Отец с сыном принимаются за работу... и ЧЁ???????????? Хоть бы пол намёка?

[Цитировать]

114742Отец с сыном принимаются за работу... и ЧЁ???????????? Хоть бы пол намёка?
В этом и вся интрига....

[Цитировать]



Показать сообщения:    

Текущее время: 05-Мар 21:40

Часовой пояс: UTC + 6


Вы не можете начинать темы
Вы не можете отвечать на сообщения
Вы не можете редактировать свои сообщения
Вы не можете удалять свои сообщения
Вы не можете голосовать в опросах
Вы не можете прикреплять файлы к сообщениям
Вы не можете скачивать файлы

!ВНИМАНИЕ!
Сайт не предоставляет электронные версии произведений, а занимается лишь коллекционированием и каталогизацией ссылок, присылаемых и публикуемых на форуме нашими читателями. Если вы являетесь правообладателем какого-либо представленного материала и не желаете, чтобы ссылка на него находилась в нашем каталоге, свяжитесь с нами, и мы незамедлительно удалим ее. Файлы для обмена на трекере предоставлены пользователями сайта, и администрация не несет ответственности за их содержание. Просьба не заливать файлы, защищенные авторскими правами, а также файлы нелегального содержания!