***Уважаемые пользователи и гости !!! Сайт переехал на новый домен Torrents-club.info. Просьба изменить ваши закладки! ***
 
[ Сегодня идет свободное скачивание без начисления Download ]


Статистика раздачи
Скачал: [ 1 ]
 
   
 
 
 
 
Рухнувшие небеса
Falling Skies
[S01-05]
- Информация:
Название: Рухнувшие небеса
Оригинальное название: Falling Skies
Год выхода: 2011 - 2015
Страна: США, Канада
Студия: DreamWorks Television, TNT Originals, Invasion Productions
Продолжительность: 52 x ~ 42:00
Жанр: фантастика, боевик, триллер, драма, приключения
Режиссер: Грег Биман, Олатунде Осунсанми, Серджо Мимика-Геззан, ...
В ролях: Ноа Уайли, Максим Найт, Сейшелл Гэбриел, Терри О’Куинн, Коннор Джессуп, Питер Шинкода, Дрю Рой, Мун Бладгуд, Уилл Пэттон, Сара Картер, Колин Каннингэм, ...
О сериале:
Инопланетное вторжение стало для землян полной неожиданностью. Несколько выживших объединяются, чтобы ежедневно бороться за выживание и попытаться наладить связь с такими же как они «счастливчиками» из других городов, и дать отпор захватчикам из космоса…


Перевод:
- Профессиональный (многоголосый, закадровый) LostFilm
- Профессиональный (многоголосый, закадровый) Sci-Fi

Файл:
Кодек: MPEG4/ISO/AVC
Качество: BDRip 720p (1 сезон), WEB-DL 720p (2,3,4 и 5 сезон)
Видео: 1280x720, ~4000 kbps, 23,976 fps
Аудио #1: AC-3, 6 ch, 448 kbps (Rus) - LostFilm (1 сезон)
Аудио #1: AC-3, 6 ch, 384 kbps (Rus) - LostFilm (2,3,4 и 5 сезон)
Аудио #2: AC-3, 2 ch, 192 kbps (Rus) - AXN Sci-Fi (1 сезон)
Аудио #2: MP3, 2 ch, 128 kbps (Rus) - AXN Sci-Fi (2,3 и 4 сезон)

MediaInfo:


General
Unique ID : 250397025842242139635052593194485653322 (0xBC60B687876A274C8C03A442EAD79F4A)
Complete name : C:\Users\user\Downloads\Рухнувшие небеса (Falling Skies) S01-05 2011-15 WEB-DL 720p LostFilm Sci-Fi\Рухнувшие небеса (Falling Skies) S02 2012 WEB-DL 720p LostFilm Sci-Fi\Falling Skies E01 S02 2012 WEB-DL 720p LostFilm Sci-Fi.mkv
Format : Matroska
Format version : Version 2
File size : 1.34 GiB
Duration : 42 min 6 s
Overall bit rate : 4 559 kb/s
Encoded date : UTC 2017-10-11 00:04:49
Writing application : mkvmerge v4.0.0 ('The Stars were mine') сборка от Jun 6 2010 16:18:42
Writing library : libebml v1.0.0 + libmatroska v1.0.0
Video
ID : 1
Format : AVC
Format/Info : Advanced Video Codec
Format profile : High@L3.1
Format settings : 2 Ref Frames
Format settings, CABAC : No
Format settings, RefFrames : 2 frames
Codec ID : V_MPEG4/ISO/AVC
Duration : 42 min 6 s
Bit rate : 3 892 kb/s
Width : 1 280 pixels
Height : 720 pixels
Display aspect ratio : 16:9
Frame rate mode : Constant
Frame rate : 23.976 (24000/1001) FPS
Color space : YUV
Chroma subsampling : 4:2:0
Bit depth : 8 bits
Scan type : Progressive
Bits/(Pixel*Frame) : 0.176
Stream size : 1.14 GiB (85%)
Language : English
Default : No
Forced : No
Color range : Limited
Color primaries : BT.709
Transfer characteristics : BT.709
Matrix coefficients : BT.709
Audio #1
ID : 2
Format : AC-3
Format/Info : Audio Coding 3
Format settings, Endianness : Big
Codec ID : A_AC3
Duration : 42 min 6 s
Bit rate mode : Constant
Bit rate : 448 kb/s
Channel(s) : 6 channels
Channel positions : Front: L C R, Side: L R, LFE
Sampling rate : 48.0 kHz
Frame rate : 31.250 FPS (1536 SPF)
Bit depth : 16 bits
Compression mode : Lossy
Stream size : 135 MiB (10%)
Title : LostFilm
Language : Russian
Service kind : Complete Main
Default : No
Forced : No
Audio #2
ID : 3
Format : MPEG Audio
Format version : Version 1
Format profile : Layer 3
Format settings : Joint stereo / MS Stereo
Mode : Joint stereo
Mode extension : MS Stereo
Codec ID : A_MPEG/L3
Codec ID/Hint : MP3
Duration : 42 min 6 s
Bit rate mode : Constant
Bit rate : 128 kb/s
Channel(s) : 2 channels
Sampling rate : 48.0 kHz
Compression mode : Lossy
Stream size : 38.5 MiB (3%)
Title : AXN Sci-Fi
Language : Russian
Default : No
Forced : No

Скриншоты


[Цитировать]



Показать сообщения:    

Текущее время: 02-Мар 14:58

Часовой пояс: UTC + 6


Вы не можете начинать темы
Вы не можете отвечать на сообщения
Вы не можете редактировать свои сообщения
Вы не можете удалять свои сообщения
Вы не можете голосовать в опросах
Вы не можете прикреплять файлы к сообщениям
Вы не можете скачивать файлы

!ВНИМАНИЕ!
Сайт не предоставляет электронные версии произведений, а занимается лишь коллекционированием и каталогизацией ссылок, присылаемых и публикуемых на форуме нашими читателями. Если вы являетесь правообладателем какого-либо представленного материала и не желаете, чтобы ссылка на него находилась в нашем каталоге, свяжитесь с нами, и мы незамедлительно удалим ее. Файлы для обмена на трекере предоставлены пользователями сайта, и администрация не несет ответственности за их содержание. Просьба не заливать файлы, защищенные авторскими правами, а также файлы нелегального содержания!